imdb
rating

6.3
Take Me Home Tonight

Take Me Home Tonight (2011)

Comedy

Full description

Take.Me.Home.Tonight.2011.TS.XViD-PRESTiGE

Size 946.882 MB   0 seeders     Added 2011-03-08 13:48:52

Stream torrent
Starting‥ You need BitLord! Get it from 1BitLord.com
6.7
To download or stream you need BitLord. Visit them at BitLord.com
http://www.imdb.com/title/tt0810922/

Follow an aimless college grad who pursues his dream girl at a wild Labor Day weekend party. He, 

his twin sister and their best friend struggle with their burgeoning adulthood over the course of 

the night.

General
Complete name: Take.Me.Home.Tonight.2011.TS.XViD-PRESTiGE
Format: AVI
Format/Info: Audio Video Interleave
File size: 902 MiB
Duration: 1h 28mn
Overall bit rate: 1 298 Kbps
Writing library: MPlayer

Video
ID: 0
Format: MPEG-4 Visual
Format profile: Advanced Simple@L5
Format settings, BVOP: 2
Format settings, QPel: No
Format settings, GMC: No warppoints
Format settings, Matrix: Default (H.263)
Codec ID: XVID
Codec ID/Hint: XviD
Duration: 1h 38mn
Bit rate: 1 029 Kbps
Width: 720 pixels
Height: 480 pixels
Display aspect ratio: 3:2
Frame rate: 25.000 fps
Standard: NTSC
Color space: YUV
Chroma subsampling: 4:2:0
Bit depth: 8 bits
Scan type: Progressive
Compression mode: Lossy
Bits/(Pixel*Frame): 0.119
Stream size: 726 MiB (79%)
Writing library: XviD 1.1.2 (UTC 2006-11-01)

Audio
ID: 1
Format: MPEG Audio
Format version: Version 1
Format profile: Layer 3
Mode: Joint stereo
Codec ID: 55
Codec ID/Hint: MP3
Bit rate mode: Constant
Bit rate: 256 Kbps
Channel(s): 2 channels
Sampling rate: 44.1 KHz
Compression mode: Lossy
Delay relative to video: 40ms
Stream size: 180 MiB (20%)
Alignment: Aligned on interleaves
Interleave, duration: 26 ms (0.65 video frame)
Interleave, preload duration: 809 ms
MOVIE.nfo 4.858 KB
Subs[ENG].srt 136.693 KB
Take.Me.Home.Tonight.2011.TS.XViD-PRESTiGE.avi 946.714 MB
Gathering some info...

Register and log in Isohunt and see no captcha anymore!

4000 symbols left
Hash D05FA9B4226C9243F19E42BCA4CD84F44BB1927F

Related torrents for "Take.Me.Home.Tonight.2011.TS.XViD-PRESTiGE"

Torrent search:

telesync 2011