Artic Blast 2010 DVDRip x264-Jucified (350MB) [torrent-palace]

Size 367.537 MB   0 seeders     Added 2011-03-09 04:17:39

Stream torrent
Starting‚Ä• You need BitLord! Get it from 1BitLord.com
To download or stream you need BitLord. Visit them at BitLord.com
MDB Link/Rating

http://www.imdb.com/title/tt1523267/

3.2/10

Source Used

Artic Blast 2010 DVDRip XviD-PRESTiGE (Thanks)

General

Complete name : Artic Blast 2010 DVDRip x264-Jucified (350MB).mp4
Format : MPEG-4
Format profile : Base Media
Codec ID : isom
File size : 351 MiB
Duration : 1h 24mn
Overall bit rate : 582 Kbps

Video

Format : AVC
Format/Info : Advanced Video Codec
Format profile : High@L4.1
Format settings, CABAC : Yes
Format settings, ReFrames : 2 frames
Codec ID : avc1
Codec ID/Info : Advanced Video Coding
Duration : 1h 24mn
Bit rate mode : Variable
Bit rate : 547 Kbps
Maximum bit rate : 1 835 Kbps
Width : 720 pixels
Height : 416 pixels
Display aspect ratio : 16/9
Frame rate mode : Constant
Frame rate : 25.000 fps
Resolution : 24 bits
Colorimetry : 4:2:0
Scan type : Progressive
Bits/(Pixel*Frame) : 0.073
Stream size : 329 MiB (94%)

Audio

Format : AAC
Format/Info : Advanced Audio Codec
Format version : Version 4
Format profile : LC
Format settings, SBR : No
Codec ID : 40
Duration : 1h 24mn
Bit rate mode : Variable
Bit rate : 32.0 Kbps
Maximum bit rate : 38.7 Kbps
Channel(s) : 2 channels
Channel positions : L R
Sampling rate : 48.0 KHz
Resolution : 16 bits
Stream size : 19.3 MiB (5%)
Artic Blast 2010 DVDRip x264-Jucified (350MB).mp4 367.537 MB
Gathering some info...

Register and log in Isohunt and see no captcha anymore!

4000 symbols left
Hash 133374F5EAD094AA3614321B842F35A6EEEC15AB