imdb
rating

7.2
Rango

Rango (2011)

Adventure, Animation, Comedy, Western, Family

Full description

Rango (2011) TS HQ XviD IDN CREW avi

Size 893.31 MB   0 seeders     Added 2011-03-09 14:52:25

Stream torrent
Starting‥ You need BitLord! Get it from BitLord.com
7.3
To download or stream you need BitLord. Visit them at BitLord.com
http://www.imdb.com/title/tt1192628/
\n
\nRango is an ordinary chameleon who accidentally winds up in the town of Dirt, a
\n
\nlawless outpost in the Wild West in desperate need of a new sheriff.
\n
\nGeneral
\nComplete name: Rango.2011.TS.XViD-PRESTiGE
\nFormat: AVI
\nFormat/Info: Audio Video Interleave
\nFile size: 951 MiB
\nDuration: 1h 23mn
\nOverall bit rate: 1 298 Kbps
\nWriting library: MPlayer
\n
\nVideo
\nID: 0
\nFormat: MPEG-4 Visual
\nFormat profile: Advanced Simple@L5
\nFormat settings, BVOP: 2
\nFormat settings, QPel: No
\nFormat settings, GMC: No warppoints
\nFormat settings, Matrix: Default (H.263)
\nCodec ID: XVID
\nCodec ID/Hint: XviD
\nDuration: 1h 38mn
\nBit rate: 1 029 Kbps
\nWidth: 720 pixels
\nHeight: 480 pixels
\nDisplay aspect ratio: 3:2
\nFrame rate: 25.000 fps
\nStandard: NTSC
\nColor space: YUV
\nChroma subsampling: 4:2:0
\nBit depth: 8 bits
\nScan type: Progressive
\nCompression mode: Lossy
\nBits/(Pixel*Frame): 0.119
\nStream size: 726 MiB (79%)
\nWriting library: XviD 1.1.2 (UTC 2006-11-01)
\n
\nAudio
\nID: 1
\nFormat: MPEG Audio
\nFormat version: Version 1
\nFormat profile: Layer 3
\nMode: Joint stereo
\nCodec ID: 55
\nCodec ID/Hint: MP3
\nBit rate mode: Constant
\nBit rate: 256 Kbps
\nChannel(s): 2 channels
\nSampling rate: 44.1 KHz
\nCompression mode: Lossy
\nDelay relative to video: 40ms
\nStream size: 180 MiB (20%)
\nAlignment: Aligned on interleaves
\nInterleave, duration: 26 ms (0.65 video frame)
\nInterleave, preload duration: 809 ms
Rango (2011) TS HQ XviD IDN CREW avi/Movie.nfo 4.858 KB
Rango (2011) TS HQ XviD IDN CREW avi/Rango (2011) TS HQ XviD IDN CREW avi.avi 893.236 MB
Rango (2011) TS HQ XviD IDN CREW avi/Torrent downloaded from Ahashare.com.txt 38 B
Gathering some info...

Register and log in Isohunt and see no captcha anymore!

4000 symbols left
Hash 9e327739fb407b17c15e236b2fb595299aed5164

Related torrents for "Rango (2011) TS HQ XviD IDN CREW avi"

Torrent search:

telesync 2011