imdb
rating

7.0
Paul

Paul (2011)

Adventure, Comedy, Science Fiction

Full description
quality   dvdr cam x264 telesync dvdrip bd dvd

Paul 2011 CAM XviD � UNDEAD

Size 969.924 MB   0 seeders     Added 2011-03-10 00:41:38

Stream torrent
Starting‥ You need BitLord! Get it from BitLord.com
10
To download or stream you need BitLord. Visit them at BitLord.com
[img]image[/img]
[code]
Paul 2011 CAM XviD � UNDEAD

********************************************************************************************************************



Ripper ...........:CAM XviD IMDB Rating.......:7.5/10

Video Codec.......:CAM XviD Release Date......:14/02/11

Audio Codec.......:MP3 Theatre Date......:02/03/11

Audio Bitrate.....:128 Runtime...........:1h 35mn

Subtitles.........:NIL Language..........:ENGLISH

Resolution........:720 x 304 IMDb URL.......... http://www.imdb.com/title/tt1092026/





DETAILS:



Video

ID : 0

Format : MPEG-4 Visual

Format profile : Advanced Simple@L5

Format settings, BVOP : Yes

Format settings, QPel : Yes

Format settings, GMC : No warppoints

Format settings, Matrix : Default (MPEG)

Muxing mode : Packed bitstream

Codec ID : XVID

Codec ID/Hint : XviD

Duration : 1h 35mn

Bit rate : 2 929 Kbps

Width : 720 pixels

Height : 304 pixels

Display aspect ratio : 2.35

Frame rate : 25.000 fps

Resolution : 24 bits

Colorimetry : 4:2:0

Scan type : Progressive

Bits/(Pixel*Frame) : 0.535

Stream size : 1.95 GiB (95%)

Writing library : XviD 71



Audio

ID : 1

Format : MPEG Audio

Format version : Version 1

Format profile : Layer 3

Codec ID : 55

Codec ID/Hint : MP3

Duration : 1h 35mn

Bit rate mode : Constant

Bit rate : 128 Kbps

Channel(s) : 2 channels

Sampling rate : 44.1 KHz

Resolution : 16 bits

Stream size : 87.3 MiB (4%)

Alignment : Split accross interleaves

Interleave, duration : 40 ms (1.00 video frame)

Interleave, preload duration : 500 ms





SOURCES:



VIDEO: K3Vin786 720p files...Thanks

AUDIO: K3Vin786 720p files...Thanks



NOTES:



Well here we go with our v2 .....after sitting back and watching the release,i thought shame about the

camera movements so we\'ve opted to go the extra distance with this one

What we\'ve done is took the 720p source files and cut them up into 7-8 files,where there is camera movement...

ranging from 2 secs to 20 secs and then we cropped and resized them all to match.

By doing this you get max video footage possible,but AR can go a little off but not by much at all.



Heres a screen compare so you can want we mean:


http://screenshotcomparison.com/comparison/29566



Also by doing this now you can read all the subbed parts and not just the top of them...check sample

And finally we\'ve filtered slightly different on this release compared to v1.



Anyway enjoy folks ....
[/code]
Screens:
[img]image[/img]
[img]image[/img]
[img]image[/img]
Demonoid.com.txt 42 B
MOVIE.nfo 4.858 KB
Paul 2011 CAM XviD � UNDEAD.avi 969.782 MB
Gathering some info...

Register and log in Isohunt and see no captcha anymore!

4000 symbols left
Hash 32D0FF715082098918B286994AA596327DC84EDE

Related torrents for "Paul 2011 CAM XviD � UNDEAD"

Torrent search:

cam 2011