Psych 9 2010 DVDRip Xvid AC3-*THC*

Size 2.064 GB   0 seeders     Added 2011-03-10 01:39:57

Stream torrent
Starting‥ You need BitLord! Get it from BitLord.com
To download or stream you need BitLord. Visit them at BitLord.com
General

Complete name : F:\Psych 9 2010 DVDRip Xvid AC3-THC\Psych 9 2010 DVDRip Xvid AC3-THC.avi

Format : AVI

Format/Info : Audio Video Interleave

File size : 1.88 GiB

Duration : 1h 38mn

Overall bit rate : 2 749 Kbps



Video

ID : 0

Format : MPEG-4 Visual

Format profile : Advanced Simple@L5

Format settings, BVOP : 2

Format settings, QPel : Yes

Format settings, GMC : No warppoints

Format settings, Matrix : Default (MPEG)

Codec ID : XVID

Codec ID/Hint : XviD

Duration : 1h 38mn

Bit rate : 2 293 Kbps

Width : 720 pixels

Height : 304 pixels

Display aspect ratio : 2.35:1

Frame rate : 23.976 fps

Color space : YUV

Chroma subsampling : 4:2:0

Bit depth : 8 bits

Scan type : Progressive

Compression mode : Lossy

Bits/(Pixel*Frame) : 0.437

Stream size : 1.57 GiB (83%)

Writing library : XviD 62



Audio

ID : 1

Format : AC-3

Format/Info : Audio Coding 3

Mode extension : CM (complete main)

Codec ID : 2000

Duration : 1h 38mn

Bit rate mode : Constant

Bit rate : 448 Kbps

Channel(s) : 6 channels

Channel positions : Front: L C R, Side: L R, LFE

Sampling rate : 48.0 KHz

Bit depth : 16 bits

Compression mode : Lossy

Stream size : 314 MiB (16%)

Alignment : Aligned on interleaves

Interleave, duration : 64 ms (1.53 video frames)

Interleave, preload duration : 192 ms

Title : VTS_01_1 T80 3_2ch 448Kbps DELAY 0ms english



Actors: Cary Elwes, Michael Biehn, Gabriel Mann

Language: English

Subtitles: English, Spanish

Rated: R (Restricted)

Studio: Lions Gate

DVD Release Date: February 22, 2011

Run Time: 98 minutes



Sample Included: Yes

Encoder: Freebee269






http://www.imdb.com/title/tt0901504/





A young woman (Sara Foster) with a troubled past takes a job at recently closed-down hospital. Working the night shift alone she begins to experience a series of unsettling events that lead her to believe that the hospital may be connected to a number of recent murders in the area. To uncover the truth, she will have to revisit the past behind the walls of PSYCH:9.
Psych 9 2010 DVDRip Xvid AC3-THC.avi 2.021 GB
Sample/Psych 9 2010 DVDRip Xvid AC3 Sample-THC.avi 35.329 MB
Subtitle/VTS_01_0 english.idx 49.131 KB
Gathering some info...

Register and log in Isohunt and see no captcha anymore!

4000 symbols left
Hash D607AA7D2A0D3E1AC69943A62B52EAEDF2A36996