imdb
rating

7.2
Rango

Rango (2011)

Adventure, Animation, Comedy, Western, Family

Full description

Rango.2011.DVDSCREENER.Xvid - Copy

Size 924.835 MB   0 seeders     Added 2011-03-10 09:48:10

Stream torrent
Starting‥ You need BitLord! Get it from BitLord.com
To download or stream you need BitLord. Visit them at BitLord.com
http://www.imdb.com/title/tt1192628/

Rango is an ordinary chameleon who accidentally winds up in the town of Dirt, a lawless outpost in 

the Wild West in desperate need of a new sheriff.

General
Complete name: Rango.2011.DVDSCREENER.Xvid - Copy
Format: AVI
Format/Info: Audio Video Interleave
File size: 881 MiB
Duration: 1h 23mn
Overall bit rate: 1 298 Kbps
Writing library: MPlayer

Video
ID: 0
Format: MPEG-4 Visual
Format profile: Advanced Simple@L5
Format settings, BVOP: 2
Format settings, QPel: No
Format settings, GMC: No warppoints
Format settings, Matrix: Default (H.263)
Codec ID: XVID
Codec ID/Hint: XviD
Duration: 1h 38mn
Bit rate: 1 029 Kbps
Width: 720 pixels
Height: 480 pixels
Display aspect ratio: 3:2
Frame rate: 25.000 fps
Standard: NTSC
Color space: YUV
Chroma subsampling: 4:2:0
Bit depth: 8 bits
Scan type: Progressive
Compression mode: Lossy
Bits/(Pixel*Frame): 0.119
Stream size: 726 MiB (79%)
Writing library: XviD 1.1.2 (UTC 2006-11-01)

Audio
ID: 1
Format: MPEG Audio
Format version: Version 1
Format profile: Layer 3
Mode: Joint stereo
Codec ID: 55
Codec ID/Hint: MP3
Bit rate mode: Constant
Bit rate: 256 Kbps
Channel(s): 2 channels
Sampling rate: 44.1 KHz
Compression mode: Lossy
Delay relative to video: 40ms
Stream size: 180 MiB (20%)
Alignment: Aligned on interleaves
Interleave, duration: 26 ms (0.65 video frame)
Interleave, preload duration: 809 ms
MOVIE.nfo 4.858 KB
Rango.2011.DVDSCREENER.Xvid.avi 924.693 MB
Subs[ENG].srt 136.693 KB
Gathering some info...

Register and log in Isohunt and see no captcha anymore!

4000 symbols left
Hash 7B62A80F744522805B22359707EF7089A982D9ED

Related torrents for "Rango.2011.DVDSCREENER.Xvid - Copy"

Torrent search:

screener 2011