imdb
rating

7.3
The Source

The Source (2011)

Comedy, Drama, Foreign

Full description
quality   cam telesync x264 screener

Paul CAM NEW SOURCE XViD v2 DTRG SAFCuk009

Size 1.185 GB   0 seeders     Added 2011-03-14 01:14:14

Stream torrent
Starting‥ You need BitLord! Get it from BitLord.com
To download or stream you need BitLord. Visit them at BitLord.com
Format : AVI
\n
\nFormat/Info : Audio Video Interleave
\n
\nFile size : 1.10 GiB
\n
\nDuration : 1h 37mn
\n
\nOverall bit rate : 1 613 Kbps
\n
\nWriting library : VirtualDub build 32839/release
\n
\n
\n
\nVideo
\n
\nID : 0
\n
\nFormat : MPEG-4 Visual
\n
\nFormat profile : Advanced Simple@L5
\n
\nFormat settings, BVOP : Yes
\n
\nFormat settings, QPel : No
\n
\nFormat settings, GMC : No warppoints
\n
\nFormat settings, Matrix : Custom
\n
\nCodec ID : XVID
\n
\nCodec ID/Hint : XviD
\n
\nDuration : 1h 37mn
\n
\nBit rate : 1 475 Kbps
\n
\nWidth : 720 pixels
\n
\nHeight : 336 pixels
\n
\nDisplay aspect ratio : 2.2:1
\n
\nFrame rate : 25.000 fps
\n
\nColor space : YUV
\n
\nChroma subsampling : 4:2:0
\n
\nBit depth : 8 bits
\n
\nScan type : Progressive
\n
\nBits/(Pixel*Frame) : 0.244
\n
\nStream size : 1.01 GiB (91%)
\n
\nWriting library : XviD 1.2.1 (UTC 2008-12-04)
\n
\n
\n
\nAudio
\n
\nID : 1
\n
\nFormat : MPEG Audio
\n
\nFormat version : Version 1
\n
\nFormat profile : Layer 3
\n
\nMode : Joint stereo
\n
\nMode extension : MS Stereo
\n
\nCodec ID : 55
\n
\nCodec ID/Hint : MP3
\n
\nDuration : 1h 37mn
\n
\nBit rate mode : Constant
\n
\nBit rate : 128 Kbps
\n
\nChannel(s) : 2 channels
\n
\nSampling rate : 44.1 KHz
\n
\nStream size : 89.7 MiB (8%)
\n
\nAlignment : Split accross interleaves
\n
\nInterleave, duration : 40 ms (1.00 video frame)
\n
\nInterleave, preload duration : 500 ms
Paul CAM NEW SOURCE XViD v2 DTRG/Dragon nfo 1.nfo 7.244 KB
Paul CAM NEW SOURCE XViD v2 DTRG/Paul CAM NEW SOURCE XViD v2 DTRG.avi 1.185 GB
Gathering some info...

Register and log in Isohunt and see no captcha anymore!

4000 symbols left
Hash 9bd5a0246a4cecbc812740618557de437b136cc6

Related torrents for "Paul CAM NEW SOURCE XViD v2 DTRG SAFCuk009"

Torrent search:

cam