imdb
rating

6.4
The Invention of Lying

The Invention of Lying (2009)

Comedy, Fantasy, Romance

Full description

The Invention Of Lying DVDRip XviD AC3-PRESTIGE

Size 735.958 MB   0 seeders     Added 2011-03-14 01:12:04

Stream torrent
Starting‥ You need BitLord! Get it from BitLord.com
To download or stream you need BitLord. Visit them at BitLord.com
The Invention Of Lying DVDRip XviD AC3-PRESTIGE
\n
\n
\n
\n
\n
\nPlot
\n
\n
\n
\nA comedy set in a world where no one has ever lied, until a writer seizes the opportunity for personal gain.
\n
\n
\n
\n[Info
\n
\n
\n
\nFormat : AVI
\n
\nFormat/Info : Audio Video Interleave
\n
\nFile size : 701 MiB
\n
\nDuration : 1h 35mn
\n
\nOverall bit rate : 1 025 Kbps
\n
\nWriting application : VirtualDubMod 1.5.4.1 (build 2178/release)
\n
\nWriting library : VirtualDubMod build 2178/release
\n
\n
\n
\nVideo
\n
\nID : 0
\n
\nFormat : MPEG-4 Visual
\n
\nFormat profile : Advanced Simple@L5
\n
\nFormat settings, BVOP : 1
\n
\nFormat settings, QPel : No
\n
\nFormat settings, GMC : No warppoints
\n
\nFormat settings, Matrix : Custom
\n
\nCodec ID : XVID
\n
\nCodec ID/Hint : XviD
\n
\nDuration : 1h 35mn
\n
\nBit rate : 634 Kbps
\n
\nWidth : 608 pixels
\n
\nHeight : 336 pixels
\n
\nDisplay aspect ratio : 16:9
\n
\nFrame rate : 25.000 fps
\n
\nColor space : YUV
\n
\nChroma subsampling : 4:2:0
\n
\nBit depth : 8 bits
\n
\nScan type : Progressive
\n
\nCompression mode : Lossy
\n
\nBits/(Pixel*Frame) : 0.124
\n
\nStream size : 433 MiB (62%)
\n
\nWriting library : XviD 1.2.1 (UTC 2008-12-04)
\n
\n
\n
\nAudio
\n
\nID : 1
\n
\nFormat : AC-3
\n
\nFormat/Info : Audio Coding 3
\n
\nMode extension : CM (complete main)
\n
\nCodec ID : 2000
\n
\nDuration : 1h 35mn
\n
\nBit rate mode : Constant
\n
\nBit rate : 384 Kbps
\n
\nChannel(s) : 6 channels
\n
\nChannel positions : Front: L C R, Side: L R, LFE
\n
\nSampling rate : 48.0 KHz
\n
\nBit depth : 16 bits
\n
\nCompression mode : Lossy
\n
\nStream size : 263 MiB (37%)
\n
\nAlignment : Aligned on interleaves
\n
\nInterleave, duration : 96 ms (2.40 video frames)
\n
\nInterleave, preload duration : 96 ms
\n
\n
\n
\nPRESTIGE RELEASE Ripped By Mazz 27 february
\n
\n
\n
\nEnjoy
The Inventing Of Lying DVDRip XviD AC3-PRESTIGE/info.txt 2.349 KB
The Inventing Of Lying DVDRip XviD AC3-PRESTIGE/IOL1.png 265.323 KB
The Inventing Of Lying DVDRip XviD AC3-PRESTIGE/IOL2.png 207.83 KB
Gathering some info...

Register and log in Isohunt and see no captcha anymore!

4000 symbols left
Hash aa89ad9df7fc25073d3603e6d87e32fff620bd17

Related torrents for "The Invention Of Lying DVDRip XviD AC3-PRESTIGE"

Torrent search:

dvdrip