imdb
rating

4.9
Vanishing on 7th Street

Vanishing on 7th Street (2010)

Drama, Horror, Mystery, Thriller

Full description

Vanishing On The 7th Street [2010] R5 D3MT

Size 770.877 MB   0 seeders     Added 2011-03-16 09:51:54

Stream torrent
Starting‥ You need BitLord! Get it from 1BitLord.com
To download or stream you need BitLord. Visit them at BitLord.com
Format : AVI
\n
\nFormat/Info : Audio Video Interleave
\n
\nFile size : 715 MiB
\n
\nDuration : 1h 27mn
\n
\nOverall bit rate : 1 142 Kbps
\n
\nWriting application : Lavf52.39.1
\n
\n
\n
\nVideo
\n
\nID : 0
\n
\nFormat : xvid
\n
\nCodec ID : xvid
\n
\nDuration : 1h 27mn
\n
\nBit rate : 1 065 Kbps
\n
\nWidth : 624 pixels
\n
\nHeight : 272 pixels
\n
\nDisplay aspect ratio : 2.25:1
\n
\nFrame rate : 25.000 fps
\n
\nBits/(Pixel*Frame) : 0.251
\n
\nStream size : 667 MiB (93%)
\n
\n
\n
\nAudio
\n
\nID : 1
\n
\nFormat : MPEG Audio
\n
\nFormat version : Version 1
\n
\nFormat profile : Layer 3
\n
\nMode : Joint stereo
\n
\nMode extension : MS Stereo
\n
\nCodec ID : 55
\n
\nCodec ID/Hint : MP3
\n
\nDuration : 1h 27mn
\n
\nBit rate mode : Constant
\n
\nBit rate : 64.0 Kbps
\n
\nChannel(s) : 2 channels
\n
\nSampling rate : 48.0 KHz
\n
\nCompression mode : Lossy
\n
\nStream size : 40.1 MiB (6%)
\n
\nAlignment : Aligned on interleaves
\n
\nInterleave, duration : 24 ms (0.60 video frame)
\n
\nInterleave, preload duration : 24 ms
\n
\nWriting library : LAME3.96.1
Vanishing On The 7th Street [2010] R5 D3MT/Sample.avi 20.972 MB
Vanishing On The 7th Street [2010] R5 D3MT/Vanishing.On.7th.Street.2010.R5.XViD.avi 749.905 MB
Gathering some info...

Register and log in Isohunt and see no captcha anymore!

4000 symbols left
Hash 9970e22a0aca7a134bdcba23ee6bdab697a58f24

Related torrents for "Vanishing On The 7th Street [2010] R5 D3MT"

Torrent search:

dvd 2010