Step Off 2010 DVDRip Xvid AC3-*THC*(torrent-palace.info)

Size 1.551 GB   0 seeders     Added 2011-03-16 20:28:40

Stream torrent
Starting‥ You need BitLord! Get it from 1BitLord.com
To download or stream you need BitLord. Visit them at BitLord.com
Step Off 2010 DVDRip Xvid AC3-THC\Step Off 2010

Set in Atlantaïs hip-hop underground scene, Rippa (Conrad Clifton), a struggling music producer working on his latest tracks for a regional beat battle, loses everything after a robbery. While lying low, he is forced to get back to the music and prove he has real talent. With the help of his friends, heïll devise a mix to bring down the house and get him closer to being the beat battle champion.


Actors: Conrad Clifton, Onira Tares, Chris Burns, Errol Sadler, D.R.E.S Tha Beatnik
Directors: Laron Austin
Producers: Martin Kelley, Eddie Singleton
Language: English
Subtitles: English, Spanish
Rated: R (Restricted)
Studio: Lions Gate
DVD Release Date: March 15, 2011
Run Time: 95 minutes

General
Complete name : D:\Step Off 2010 DVDRip Xvid AC3-THC\Step Off 2010 DVDRip Xvid AC3-THC.avi
Format : AVI
Format/Info : Audio Video Interleave
File size : 1.40 GiB
Duration : 1h 42mn
Overall bit rate : 1 952 Kbps

Video
ID : 0
Format : MPEG-4 Visual
Format profile : Advanced Simple@L5
Format settings, BVOP : 2
Format settings, QPel : Yes
Format settings, GMC : No warppoints
Format settings, Matrix : Default (MPEG)
Codec ID : XVID
Codec ID/Hint : XviD
Duration : 1h 42mn
Bit rate : 1 497 Kbps
Width : 720 pixels
Height : 400 pixels
Display aspect ratio : 16:9
Frame rate : 23.976 fps
Color space : YUV
Chroma subsampling : 4:2:0
Bit depth : 8 bits
Scan type : Progressive
Compression mode : Lossy
Bits/(Pixel*Frame) : 0.217
Stream size : 1.07 GiB (77%)
Writing library : XviD 62

Audio
ID : 1
Format : AC-3
Format/Info : Audio Coding 3
Mode extension : CM (complete main)
Codec ID : 2000
Duration : 1h 42mn
Bit rate mode : Constant
Bit rate : 448 Kbps
Channel(s) : 6 channels
Channel positions : Front: L C R, Side: L R, LFE
Sampling rate : 48.0 KHz
Bit depth : 16 bits
Compression mode : Lossy
Stream size : 328 MiB (23%)
Alignment : Aligned on interleaves
Interleave, duration : 64 ms (1.53 video frames)
Interleave, preload duration : 192 ms
Title : VTS_01_1 T80 3_2ch 448Kbps DELAY 0ms english


Sample Included: Yes
Encoder: Freebee269 
Step Off 2010 DVDRip Xvid AC3-THC/Sample/Step Off 2010 DVDRip Xvid AC3 Sample-THC.avi 37.618 MB
Step Off 2010 DVDRip Xvid AC3-THC/Step Off 2010 DVDRip Xvid AC3-THC.avi 1.501 GB
Step Off 2010 DVDRip Xvid AC3-THC/Subtitle/VTS_01_0 english.idx 73.123 KB
Gathering some info...

Register and log in Isohunt and see no captcha anymore!

4000 symbols left
Hash bc47558f686498d1519993263c8ca4c4315c4b78