Step Off 2010 DVDRip Xvid AC3-THC

Size 1.551 GB   0 seeders     Added 2011-03-17 03:48:12

Stream torrent
Starting‥ You need BitLord! Get it from 1BitLord.com
To download or stream you need BitLord. Visit them at BitLord.com
Complete name : D:\\Step Off 2010 DVDRip Xvid AC3-THC\\Step Off 2010 DVDRip Xvid AC3-THC.avi
\n
\nFormat : AVI
\n
\nFormat/Info : Audio Video Interleave
\n
\nFile size : 1.40 GiB
\n
\nDuration : 1h 42mn
\n
\nOverall bit rate : 1 952 Kbps
\n
\n
\n
\nVideo
\n
\nID : 0
\n
\nFormat : MPEG-4 Visual
\n
\nFormat profile : Advanced Simple@L5
\n
\nFormat settings, BVOP : 2
\n
\nFormat settings, QPel : Yes
\n
\nFormat settings, GMC : No warppoints
\n
\nFormat settings, Matrix : Default (MPEG)
\n
\nCodec ID : XVID
\n
\nCodec ID/Hint : XviD
\n
\nDuration : 1h 42mn
\n
\nBit rate : 1 497 Kbps
\n
\nWidth : 720 pixels
\n
\nHeight : 400 pixels
\n
\nDisplay aspect ratio : 16:9
\n
\nFrame rate : 23.976 fps
\n
\nColor space : YUV
\n
\nChroma subsampling : 4:2:0
\n
\nBit depth : 8 bits
\n
\nScan type : Progressive
\n
\nCompression mode : Lossy
\n
\nBits/(Pixel*Frame) : 0.217
\n
\nStream size : 1.07 GiB (77%)
\n
\nWriting library : XviD 62
\n
\n
\n
\nAudio
\n
\nID : 1
\n
\nFormat : AC-3
\n
\nFormat/Info : Audio Coding 3
\n
\nMode extension : CM (complete main)
\n
\nCodec ID : 2000
\n
\nDuration : 1h 42mn
\n
\nBit rate mode : Constant
\n
\nBit rate : 448 Kbps
\n
\nChannel(s) : 6 channels
\n
\nChannel positions : Front: L C R, Side: L R, LFE
\n
\nSampling rate : 48.0 KHz
\n
\nBit depth : 16 bits
\n
\nCompression mode : Lossy
\n
\nStream size : 328 MiB (23%)
\n
\nAlignment : Aligned on interleaves
\n
\nInterleave, duration : 64 ms (1.53 video frames)
\n
\nInterleave, preload duration : 192 ms
\n
\nTitle : VTS_01_1 T80 3_2ch 448Kbps DELAY 0ms english
\n
\n
\n
\nActors: Conrad Clifton, Onira Tares, Chris Burns, Errol Sadler, D.R.E.S Tha Beatnik
\n
\nDirectors: Laron Austin
\n
\nProducers: Martin Kelley, Eddie Singleton
\n
\nLanguage: English
\n
\nSubtitles: English, Spanish
\n
\nRated: R (Restricted)
\n
\nStudio: Lions Gate
\n
\nDVD Release Date: March 15, 2011
\n
\nRun Time: 95 minutes
\n
\n
\n
\nSample Included: Yes
\n
\nEncoder: Freebee269
\n
\n
\n
\n
\n
\n
\nhttp://www.imdb.com/title/tt1791612/
\n
\n
\n
\n
\n
\nSet in Atlanta s hip-hop underground scene, Rippa (Conrad Clifton), a struggling music producer working on his latest tracks for a regional beat battle, loses everything after a robbery. While lying low, he is forced to get back to the music and prove he has real talent. With the help of his friends, he ll devise a mix to bring down the house and get him closer to being the beat battle champion.
Step Off 2010 DVDRip Xvid AC3-THC/Sample/Step Off 2010 DVDRip Xvid AC3 Sample-THC.avi 37.618 MB
Step Off 2010 DVDRip Xvid AC3-THC/Step Off 2010 DVDRip Xvid AC3-THC.avi 1.501 GB
Step Off 2010 DVDRip Xvid AC3-THC/Subtitle/VTS_01_0 english.idx 73.123 KB
Gathering some info...

Register and log in Isohunt and see no captcha anymore!

4000 symbols left
Hash 44aecd986cad57ff7e959e0aea3361b06c02a667