imdb
rating

7.2
A Shine of Rainbows

A Shine of Rainbows (2009)

Drama, Family, Foreign

Full description
quality   dvdrip dvdr dvd screener

A Shine Of Rainbows 2009 DVDRip Xvid AC3-*THC*[www.twisty-mistys.com]

Size 1.544 GB   0 seeders     Added 2011-03-18 03:51:34

Stream torrent
Starting‥ You need BitLord! Get it from BitLord.com
To download or stream you need BitLord. Visit them at BitLord.com
If you are interested in this torrent come and download it at twisty-mistys.com. Join us there for this and all the latest movies, music, games, apps, tv episodes, XXX and much more we have several seeders for good speeds plus helpful friendly staff and fun filled forums.
\n*pls note that it is a sharing community and seedback is required*
\nwe look forward to seeing you there.
\n
\nGeneral
\n
\nComplete name : F:\\A Shine Of Rainbows 2009 DVDRip Xvid AC3-THC\\A Shine Of Rainbows 2009 DVDRip Xvid AC3-THC.avi
\n
\nFormat : AVI
\n
\nFormat/Info : Audio Video Interleave
\n
\nFile size : 1.40 GiB
\n
\nDuration : 1h 41mn
\n
\nOverall bit rate : 1 984 Kbps
\n
\n
\n
\nVideo
\n
\nID : 0
\n
\nFormat : MPEG-4 Visual
\n
\nFormat profile : Advanced Simple@L5
\n
\nFormat settings, BVOP : 2
\n
\nFormat settings, QPel : Yes
\n
\nFormat settings, GMC : No warppoints
\n
\nFormat settings, Matrix : Default (MPEG)
\n
\nCodec ID : XVID
\n
\nCodec ID/Hint : XviD
\n
\nDuration : 1h 41mn
\n
\nBit rate : 1 529 Kbps
\n
\nWidth : 720 pixels
\n
\nHeight : 304 pixels
\n
\nDisplay aspect ratio : 2.35:1
\n
\nFrame rate : 23.976 fps
\n
\nColor space : YUV
\n
\nChroma subsampling : 4:2:0
\n
\nBit depth : 8 bits
\n
\nScan type : Progressive
\n
\nCompression mode : Lossy
\n
\nBits/(Pixel*Frame) : 0.291
\n
\nStream size : 1.08 GiB (77%)
\n
\nWriting library : XviD 1.2.1 (UTC 2008-12-04)
\n
\n
\n
\nAudio
\n
\nID : 1
\n
\nFormat : AC-3
\n
\nFormat/Info : Audio Coding 3
\n
\nMode extension : CM (complete main)
\n
\nCodec ID : 2000
\n
\nDuration : 1h 41mn
\n
\nBit rate mode : Constant
\n
\nBit rate : 448 Kbps
\n
\nChannel(s) : 6 channels
\n
\nChannel positions : Front: L C R, Side: L R, LFE
\n
\nSampling rate : 48.0 KHz
\n
\nBit depth : 16 bits
\n
\nCompression mode : Lossy
\n
\nStream size : 324 MiB (23%)
\n
\nAlignment : Aligned on interleaves
\n
\nInterleave, duration : 64 ms (1.53 video frames)
\n
\nInterleave, preload duration : 192 ms
\n
\nTitle : VTS_01_1 T80 3_2ch 448Kbps DELAY 0ms english
\n
\n
\n
\nActors: Connie Nielsen, Aidan Quinn, John Bell, Jack Gleeson, Tara Alice Scully
\n
\nDirectors: Vic Sarin
\n
\nWriters: Vic Sarin, Catherine Spear, Dennis Foon, Lillian Beckwith
\n
\nProducers: Chris Rudolph, David Reckziegel, James Flynn
\n
\nLanguage: English (Dolby Digital 5.1)
\n
\nSubtitles: English, Spanish
\n
\nRated: PG (Parental Guidance Suggested)
\n
\nStudio: 20th Century Fox
\n
\nDVD Release Date: March 15, 2011
\n
\nRun Time: 101 minutes
\n
\n
\n
\nSample Included: Yes
\n
\nEncoder: Freebee269
\n
\n
\n
\n
\n
\n
\nhttp://www.imdb.com/title/tt1014774/
\n
\n
\n
\n
\n
\nA truly inspiring story of one ordinary family s extraordinary journey. An orphaned boy named Tom s is adopted by Maire O Donnell (Connie Nielsen) to live on a whimsical Irish isle filled with new friends, secret caves and a lost baby pup seal stranded on the coast. But when Maire s reluctant husband Alec (Aidan Quinn) refuses to accept Tom s as his own son, the boy drifts down a fateful path of adventure and self-discovery, illuminating how rainbows can shine around--and within--us all.
A Shine Of Rainbows 2009 DVDRip Xvid AC3-THC/A Shine Of Rainbows 2009 DVDRip Xvid AC3-THC.avi 1.503 GB
A Shine Of Rainbows 2009 DVDRip Xvid AC3-THC/Sample/A Shine Of Rainbows 2009 DVDRip Xvid AC3 Sample-THC.avi 30.29 MB
A Shine Of Rainbows 2009 DVDRip Xvid AC3-THC/Subtitle/VTS_01_0 english.idx 104.51 KB
Gathering some info...

Register and log in Isohunt and see no captcha anymore!

4000 symbols left
Hash 728192db2f2f19e187438dd2a6c1d9d47712a954

Related torrents for "A Shine Of Rainbows 2009 DVDRip Xvid AC3-*THC*[www.twisty-mistys.com]"

Torrent search:

dvdrip 2009