imdb
rating

4.7
The Dragon Pearl

The Dragon Pearl (2011)

Adventure

Full description

The Dragon Pearl 2011 DvDScr XVID Hive-CM8(torrent-palace.info)

Size 988.621 MB   0 seeders     Added 2011-03-19 01:52:59

Stream torrent
Starting‥ You need BitLord! Get it from BitLord.com
To download or stream you need BitLord. Visit them at BitLord.com
Source: 700mb Screener avi

Video: 720x352 @bitrate 1200 2pass
Audio: English AC3 2.0 Stereo
Sample: yes included

Encode: Source was not the greatest,looks more like a TS to me but since the
source file is called dvdscr i will let it like that.
The video was dark,milky and colourless and has chinese subs which i had to cut off.
the subs were only in one vertical line but nearly filled the complete screen so blurring
would look worse than cropping them off.
tried to brighten it up and give it more life. audio was english stereo still the same.
on faster scenes is a bit pixelation which already were on source due to low bitrate.
can do nothing about until better source is available.
since than its a watchable copy for such an early release.


http://www.imdb.com/title/tt1708534/


General
Complete name : The.Dragon.Pearl.2011.DvDScr.XVID.Hive-CM8.avi
Format : AVI
Format/Info : Audio Video Interleave
File size : 939 MiB
Duration : 1h 29mn
Overall bit rate : 1 467 Kbps
Writing application : Nandub v1.0rc2
Writing library : Nandub build 1853/release

Video
ID : 0
Format : MPEG-4 Visual
Format profile : Advanced Simple@L5
Format settings, BVOP : Yes
Format settings, QPel : Yes
Format settings, GMC : No warppoints
Format settings, Matrix : Default (H.263)
Muxing mode : Packed bitstream
Codec ID : XVID
Codec ID/Hint : XviD
Duration : 1h 29mn
Bit rate : 1 200 Kbps
Width : 720 pixels
Height : 352 pixels
Display aspect ratio : 2.045
Frame rate : 29.970 fps
Color space : YUV
Chroma subsampling : 4:2:0
Bit depth : 8 bits
Scan type : Progressive
Bits/(Pixel*Frame) : 0.158
Stream size : 768 MiB (82%)
Writing library : XviD 1.2.1 (UTC 2008-12-04)

Audio
ID : 1
Format : AC-3
Format/Info : Audio Coding 3
Mode extension : CM (complete main)
Codec ID : 2000
Duration : 1h 29mn
Bit rate mode : Constant
Bit rate : 256 Kbps
Channel(s) : 2 channels
Channel positions : Front: L R
Sampling rate : 48.0 KHz
Bit depth : 16 bits
Stream size : 164 MiB (17%)
Alignment : Split accross interleaves
Interleave, duration : 33 ms (1.00 video frame)
Interleave, preload duration : 500 ms



Sam Neill ... Chris Chase
Li Lin Jin ... Ling
Louis Corbett ... Josh
Wang Ji ... Dr. Li
Robert Mammone ... Philip Dukas
Jordan Chan ... Wu Dong
Chen Bao Yuan ... Henchman 1
Wang Junkang ... Henchman 2


The film follows teenagers Josh (Louis Corbett) and Ling (Li Lin Jin),
who join their respective parents, Chris (Sam Neill) and Dr Li (Wang Ji)
on an archaeological dig in China. However, they soon find a “monster” deep in a cave,
which they soon realise is a mystical dragon that has lost its magical “pearl”,
prompting a battle between good and evil. 
The.Dragon.Pearl.2011.DvDScr.XVID.Hive-CM8/sample.avi 3.895 MB
The.Dragon.Pearl.2011.DvDScr.XVID.Hive-CM8/The.Dragon.Pearl.2011.DvDScr.XVID.Hive-CM8.avi 984.721 MB
The.Dragon.Pearl.2011.DvDScr.XVID.Hive-CM8/The.Dragon.Pearl.2011.DvDScr.XVID.Hive-CM8.nfo 4.49 KB
Gathering some info...

Register and log in Isohunt and see no captcha anymore!

4000 symbols left
Hash 236b75d7dfa5f7a30a8f9bb45d68b460af403071

Related torrents for "The Dragon Pearl 2011 DvDScr XVID Hive-CM8(torrent-palace.info)"

Torrent search:

screener 2011