imdb
rating

4.9
Operation: Endgame

Operation: Endgame (2010)

Action, Adventure, Comedy, Thriller

Full description
quality   dvdrip hd bd x264 dvdr

Operation: Endgame (2010) DVDRIP XVid-*THC*[www.twisty-mistys.com]

Size 748.999 MB   0 seeders     Added 2011-03-20 03:15:35

Stream torrent
Starting‥ You need BitLord! Get it from BitLord.com
To download or stream you need BitLord. Visit them at BitLord.com
If you are interested in this torrent come and download it at twisty-mistys.com. Join us there for this and all the latest movies, music, games, apps, tv episodes, XXX and much more we have several seeders for good speeds plus helpful friendly staff and fun filled forums.
\n*pls note that it is a sharing community and seedback is required*
\nwe look forward to seeing you there.
\n
\nFile size : 704 MiB
\n
\nDuration : 1h 18mn
\n
\nOverall bit rate : 1 249 Kbps
\n
\n
\n
\nVideo
\n
\nID : 0
\n
\nFormat : MPEG-4 Visual
\n
\nFormat profile : Advanced Simple@L5
\n
\nFormat settings, BVOP : Yes
\n
\nFormat settings, QPel : No
\n
\nFormat settings, GMC : No warppoints
\n
\nFormat settings, Matrix : Default (H.263)
\n
\nCodec ID : XVID
\n
\nCodec ID/Hint : XviD
\n
\nDuration : 1h 18mn
\n
\nBit rate : 1 115 Kbps
\n
\nWidth : 608 pixels
\n
\nHeight : 336 pixels
\n
\nDisplay aspect ratio : 16:9
\n
\nFrame rate : 25.000 fps
\n
\nColor space : YUV
\n
\nChroma subsampling : 4:2:0
\n
\nBit depth : 8 bits
\n
\nScan type : Progressive
\n
\nCompression mode : Lossy
\n
\nBits/(Pixel*Frame) : 0.218
\n
\nStream size : 628 MiB (89%)
\n
\nWriting library : XviD 1.2.1 (UTC 2008-12-04)
\n
\n
\n
\nAudio
\n
\nID : 1
\n
\nFormat : MPEG Audio
\n
\nFormat version : Version 1
\n
\nFormat profile : Layer 3
\n
\nMode : Joint stereo
\n
\nMode extension : MS Stereo
\n
\nCodec ID : 55
\n
\nCodec ID/Hint : MP3
\n
\nDuration : 1h 18mn
\n
\nBit rate mode : Constant
\n
\nBit rate : 128 Kbps
\n
\nChannel(s) : 2 channels
\n
\nSampling rate : 48.0 KHz
\n
\nCompression mode : Lossy
\n
\nStream size : 72.1 MiB (10%)
\n
\nAlignment : Aligned on interleaves
\n
\nInterleave, duration : 160 ms (4.00 video frames)
\n
\nInterleave, preload duration : 216 ms
\n
\nTitle : VTS_01_1 T80 2_0ch 224Kbps DELAY 0ms
\n
\nWriting library : LAME3.98r
\n
\nEncoding settings : -m j -V 4 -q 2 -lowpass 17 -b 128
\n
\n
\n
\n
\n
\nImdb Link http://www.imdb.com/title/tt1268987/
\n
\n
\n
\n
\n
\nZach Galifianakis... Hermit
\n
\nEmilie de Ravin... Heirophant
\n
\nRob Corddry... Chariot
\n
\nOdette Yustman... Temperence
\n
\nAdam Scott... Magician
\n
\nEllen Barkin... Empress
\n
\nBrandon T. Jackson... Tower
\n
\nMaggie Q... High Priestess
\n
\nVing Rhames... Judgement
\n
\n
\n
\n
\n
\nA dry action-comedy about two teams of government assassins working out of a top-secret underground facility using code names from the Tarot deck. When our hero--The Fool--arrives for his first day at work to find that the boss has been killed under mysterious circumstances, he must find the killer before the whole place blows up.
Operation Endgame 2010 DVDRIp XVid-THC/Operation Endgame sample.avi 11.215 MB
Operation Endgame 2010 DVDRIp XVid-THC/Operation Endgame.avi 737.784 MB
Gathering some info...

Register and log in Isohunt and see no captcha anymore!

4000 symbols left
Hash 6269f73c729c7bf0204088be9d341dbaf5d51966

Related torrents for "Operation: Endgame (2010) DVDRIP XVid-*THC*[www.twisty-mistys.com]"

Torrent search:

dvdrip 2010