imdb
rating

7.0
Paul

Paul (2011)

Adventure, Comedy, Science Fiction

Full description
quality   dvdr cam x264 telesync dvdrip bd dvd

Paul 2011 TS XViD-T0XiCiNK[twisty-mistys.com]

Size 1.478 GB   0 seeders     Added 2011-03-20 03:13:27

Stream torrent
Starting‥ You need BitLord! Get it from BitLord.com
To download or stream you need BitLord. Visit them at BitLord.com
If you are interested in this torrent come and download it at twisty-mistys.com. Join us there for this and all the latest movies, music, games, apps, tv episodes, XXX and much more we have several seeders for good speeds plus helpful friendly staff and fun filled forums.
\n*pls note that it is a sharing community and seedback is required*
\nwe look forward to seeing you there.
\n
\nFile:aul.2011.TS.XViD-T0XiCiNK
\n
\n
\n
\nVideo Source:: ADDiCTED
\n
\nAudio Source:: Own
\n
\nLanguage::English
\n
\nIMDB: http://www.imdb.com/title/tt1092026/
\n
\n
\n
\nTwo British comic-book geeks traveling across the U.S. encounter
\n
\nan alien outside Area 51.
\n
\n
\n
\nSpecs::
\n
\n
\n
\nGeneral
\n
\n
\n
\nFormat : AVI
\n
\nFormat/Info : Audio Video Interleave
\n
\nFile size : 1.37 GiB
\n
\nDuration : 1h 38mn
\n
\nOverall bit rate : 1 999 Kbps
\n
\nWriting application : VirtualDubMod 1.5.10.2 (build 2540/release)
\n
\nWriting library : VirtualDubMod build 2540/release
\n
\n
\n
\nVideo
\n
\nID : 0
\n
\nFormat : MPEG-4 Visual
\n
\nFormat profile : Advanced Simple@L5
\n
\nFormat settings, BVOP : Yes
\n
\nFormat settings, QPel : No
\n
\nFormat settings, GMC : No warppoints
\n
\nFormat settings, Matrix : Default (MPEG)
\n
\nMuxing mode : Packed bitstream
\n
\nCodec ID : XVID
\n
\nCodec ID/Hint : XviD
\n
\nDuration : 1h 38mn
\n
\nBit rate : 1 861 Kbps
\n
\nWidth : 720 pixels
\n
\nHeight : 364 pixels
\n
\nDisplay aspect ratio : 1.978
\n
\nFrame rate : 25.000 fps
\n
\nColor space : YUV
\n
\nChroma subsampling : 4:2:0
\n
\nBit depth : 8 bits
\n
\nScan type : Progressive
\n
\nBits/(Pixel*Frame) : 0.284
\n
\nStream size : 1.28 GiB (93%)
\n
\nWriting library : XviD 58
\n
\n
\n
\nAudio
\n
\nID : 1
\n
\nFormat : MPEG Audio
\n
\nFormat version : Version 1
\n
\nFormat profile : Layer 3
\n
\nMode : Joint stereo
\n
\nMode extension : MS Stereo
\n
\nCodec ID : 55
\n
\nCodec ID/Hint : MP3
\n
\nDuration : 1h 38mn
\n
\nBit rate mode : Constant
\n
\nBit rate : 128 Kbps
\n
\nChannel(s) : 2 channels
\n
\nSampling rate : 44.1 KHz
\n
\nStream size : 89.9 MiB (6%)
\n
\nAlignment : Split accross interleaves
\n
\nInterleave, duration : 40 ms (1.00 video frame)
\n
\nInterleave, preload duration : 500 ms
\n
\n
\n
\n
\n
\nNOTES:: Presenting first TS of Paul with EXCELLENT quality LiNE. Enjoy.
\n
\n
\n
\n
\n
\n::Why Complain? Whats Free Is Free::
\n
\n
\n
\n::We are always looking for friends with unreleased DVD\'s, Screeners, R5\'s, Audio, Cams, Silvers,
\n
\n...and any other good sources you may have to offer -
\n
\n..contact us: t0xicreleases@hushmail.com or digital.ink@live.com
\n
\n
\n
\n:::::::::::::::::::::::::::::::::::: Respect To :::::::::::::::::::::::::::::::::::::
\n
\n::IMAGiNE,FLAWL3SS,Hive-CM8,Tranz,Vik,OneTwo,Joey,bob,Unevano,SANTi & our friends on utn and PA::
\n
\n \"and to all of you who support us, Thank-You\"
Paul.2011.TS.XViD-T0XiCiNK/Paul.2011.TS.XViD-T0XiCiNK.avi 1.473 GB
Paul.2011.TS.XViD-T0XiCiNK/Paul.2011.TS.XViD-T0XiCiNK.nfo 3.588 KB
Paul.2011.TS.XViD-T0XiCiNK/Sample.avi 5.847 MB
Gathering some info...

Register and log in Isohunt and see no captcha anymore!

4000 symbols left
Hash 33096beb4c885fd7489023996fa60df7d59ecc7e

Related torrents for "Paul 2011 TS XViD-T0XiCiNK[twisty-mistys.com]"

Torrent search:

2011