imdb
rating

8.3
Up

Up (2009)

Adventure, Animation, Comedy, Family

Full description
quality   hd dvdrip cam bd x264 dvdr

Up (2009) DvdRip [Dual Audio][Eng Hindi]~MEGUIL

Size 820.913 MB   0 seeders     Added 2011-03-21 21:32:09

Stream torrent
Starting‥ You need BitLord! Get it from BitLord.com
7.5
To download or stream you need BitLord. Visit them at BitLord.com
[img]image[/img]

[img]image[/img]


[img]image[/img]
[url]http://www.imdb.com/title/tt1049413/[/url]


[img]image[/img]

Storyline
A young Carl Fredrickson meets a young adventure spirited girl named Ellie.
They both dream of going to a Lost Land in South America. 70 years later, 
Ellie has died. Carl remembers the promise he made to her. Then, when he 
inadvertently hits a construction worker, he is forced to go to a retirement 
home. But before they can take him, he and his house fly away. However he has 
a stowaway aboard. An 8 year old boy named Russell, who's trying to get an 
Assisting the Elderly badge. Together, they embark on an adventure, where they 
encounter talking dogs, an evil villain and a rare bird named Kevin.


[img]image[/img]
Cast
Edward Asner	 	 ...	Carl Fredricksen (voice) (as Ed Asner)
Christopher Plummer	 ...	Charles Muntz (voice)
Jordan Nagai		 ...	Russell (voice)
Bob Peterson		 ...	Dug / Alpha (voice)
Delroy Lindo		 ...	Beta (voice)
Jerome Ranft		 ...	Gamma (voice)
John Ratzenberger	 ...	Construction Foreman Tom (voice)
David Kaye		 ...	Newsreel Announcer (voice)
Elie Docter		 ...	Young Ellie (voice)
Jeremy Leary		 ...	Young Carl (voice)
Mickie McGowan		 ...	Police Officer Edith (voice) (as Mickie T. McGowan)
Danny Mann		 ...	Construction Worker Steve (voice)
Donald Fullilove	 ...	Nurse George (voice) (as Don Fullilove)
Jess Harnell		 ...	Nurse AJ (voice)
Josh Cooley		 ...	Omega (voice)



[img]image[/img]

Genres: Animation | Adventure | Comedy | Drama | Family | Fantasy

General
Complete name                    : Up (2009) DvdRip [Dual Audio][Eng Hindi]~MEGUIL
Format                           : AVI
File size                        : 777 MiB
Duration                         : 1h 32mn
Overall bit rate                 : 1 178 Kbps
Movie name                       : Up (2009) DvdRip [Dual Audio][Eng Hindi]~MEGUIL
Encoded date                     : UTC 2011-03-06 20:12:18

[img]image[/img]
Video
ID                               : 1
Format                           : MPEG-4 Visual
Format profile                   : Advanced Simple@L5
Format settings, BVOP            : Yes
Format settings, QPel            : No
Format settings, GMC             : No warppoints
Format settings, Matrix          : Custom
Codec ID                         : XVID
Codec ID/Hint                    : XviD
Duration                         : 1h 32mn
Bit rate                         : 911 Kbps
Width                            : 672 pixels
Height                           : 368 pixels
Display aspect ratio             : 16:9
Frame rate                       : 23.976 fps
Color space                      : YUV
Chroma subsampling               : 4:2:0
Bit depth                        : 8 bits
Scan type                        : Progressive
Compression mode                 : Lossy
Bits/(Pixel*Frame)               : 0.154
Stream size                      : 601 MiB (77%)
Title                            : RIPPER~MEGUIL
Writing library                  : XviD 1.2.1 (UTC 2008-12-04)


[img]image[/img]
Audio #1
ID                               : 2
Format                           : MPEG Audio
Format version                   : Version 1
Format profile                   : Layer 3
Mode                             : Joint stereo
Mode extension                   : MS Stereo
Muxing mode                      : Header stripping
Codec ID                         : A_MPEG/L3
Codec ID/Hint                    : MP3
Duration                         : 1h 32mn
Bit rate mode                    : Constant
Bit rate                         : 128 Kbps
Channel(s)                       : 2 channels
Sampling rate                    : 44.1 KHz
Compression mode                 : Lossy
Stream size                      : 84.4 MiB (11%)
Title                            : RIPPER~MEGUIL
Language                         : English


[img]image[/img]
Audio #2
ID                               : 3
Format                           : MPEG Audio
Format version                   : Version 1
Format profile                   : Layer 3
Mode                             : Joint stereo
Mode extension                   : MS Stereo
Muxing mode                      : Header stripping
Codec ID                         : A_MPEG/L3
Codec ID/Hint                    : MP3
Duration                         : 1h 32mn
Bit rate mode                    : Variable
Bit rate                         : 116 Kbps
Nominal bit rate                 : 128 Kbps
Channel(s)                       : 2 channels
Sampling rate                    : 48.0 KHz
Compression mode                 : Lossy
Stream size                      : 76.9 MiB (10%)
Title                            : RIPPER~MEGUIL
Writing library                  : LAME3.98r
Encoding settings                : -m j -V 4 -q 2 -lowpass 17 --abr 128
Language                         : Hindi


[img]image[/img]
[img]image[/img]
[img]image[/img]
[img]image[/img]
[img]image[/img]
[img]image[/img]
[img]image[/img]
[img]image[/img]



[img]image[/img]


[img]image[/img]


[img]image[/img]
[img]image[/img]

[img]image[/img]
Cover.jpg 128.047 KB
Info.nfo 6.485 KB
Must Read.txt 5.111 KB
Gathering some info...

Register and log in Isohunt and see no captcha anymore!

4000 symbols left
Hash C1CA48980693C47EE2A06768E496FF2C855D266D

Related torrents for "Up (2009) DvdRip [Dual Audio][Eng Hindi]~MEGUIL"

Torrent search:

dvdrip 2009 english hindi