imdb
rating

8.8
Doctor Who

Doctor Who (2005)

Action & Adventure, Drama, Sci-Fi & Fantasy

Full description

Doctor Who - 4x14 Special - Un altro Dottore - ITA by Neminis

Size 473.473 MB   0 seeders     Added 2011-03-23 01:14:27

Stream torrent
Starting‥ You need BitLord! Get it from 1BitLord.com
To download or stream you need BitLord. Visit them at BitLord.com
Format                          : AVI
Format/Info                      : Audio Video Interleave
File size                        : 452 MiB
Duration                         : 1h 0mn
Overall bit rate                 : 1 044 Kbps

Video
ID                               : 0
Format                           : MPEG-4 Visual
Format profile                   : Advanced Simple@L5
Format settings, BVOP            : 2
Format settings, QPel            : No
Format settings, GMC             : No warppoints
Format settings, Matrix          : Custom
Codec ID                         : XVID
Codec ID/Hint                    : XviD
Duration                         : 1h 0mn
Bit rate                         : 801 Kbps
Width                            : 704 pixels
Height                           : 576 pixels
Display aspect ratio             : 1.222
Frame rate                       : 25.000 fps
Standard                         : PAL
Color space                      : YUV
Chroma subsampling               : 4:2:0
Bit depth                        : 8 bits
Scan type                        : Progressive
Compression mode                 : Lossy
Bits/(Pixel*Frame)               : 0.079
Stream size                      : 346 MiB (77%)
Writing library                  : XviD 1.2.1 (UTC 2008-12-04)

Audio
ID                               : 1
Format                           : MPEG Audio
Format version                   : Version 1
Format profile                   : Layer 3
Mode                             : Joint stereo
Codec ID                         : 55
Codec ID/Hint                    : MP3
Duration                         : 1h 0mn
Bit rate mode                    : Variable
Bit rate                         : 230 Kbps
Channel(s)                       : 2 channels
Sampling rate                    : 48.0 KHz
Compression mode                 : Lossy
Stream size                      : 99.5 MiB (22%)
Alignment                        : Aligned on interleaves
Interleave, duration             : 24 ms (0.60 video frame)
Writing library                  : LAMEUUULAME3.98.4
Doctor Who - 4x14 Special - Un altro Dottore - ITA.avi 473.473 MB
Gathering some info...

Register and log in Isohunt and see no captcha anymore!

4000 symbols left
Hash E940E994AC848CBEAF626E712FB045B8AC914C03

Related torrents for "Doctor Who - 4x14 Special - Un altro Dottore - ITA by Neminis"

Torrent search:

italian episode 14 season 04