imdb
rating

8.8
Doctor Who

Doctor Who (2005)

Action, Adventure, Drama, Science Fiction

Full description

Doctor Who - 4x13 ITA xvid MP3 by Neminis

Size 497.712 MB   0 seeders     Added 2011-03-23 01:16:24

Stream torrent
Starting‥ You need BitLord! Get it from BitLord.com
To download or stream you need BitLord. Visit them at BitLord.com
Format                           : AVI
Format/Info                      : Audio Video Interleave
File size                        : 475 MiB
Duration                         : 1h 3mn
Overall bit rate                 : 1 051 Kbps

Video
ID                               : 0
Format                           : MPEG-4 Visual
Format profile                   : Advanced Simple@L5
Format settings, BVOP            : 2
Format settings, QPel            : No
Format settings, GMC             : No warppoints
Format settings, Matrix          : Default (H.263)
Codec ID                         : XVID
Codec ID/Hint                    : XviD
Duration                         : 1h 3mn
Bit rate                         : 800 Kbps
Width                            : 704 pixels
Height                           : 576 pixels
Display aspect ratio             : 1.222
Frame rate                       : 25.000 fps
Standard                         : PAL
Color space                      : YUV
Chroma subsampling               : 4:2:0
Bit depth                        : 8 bits
Scan type                        : Progressive
Compression mode                 : Lossy
Bits/(Pixel*Frame)               : 0.079
Stream size                      : 361 MiB (76%)
Writing library                  : XviD 1.2.1 (UTC 2008-12-04)

Audio
ID                               : 1
Format                           : MPEG Audio
Format version                   : Version 1
Format profile                   : Layer 3
Mode                             : Joint stereo
Codec ID                         : 55
Codec ID/Hint                    : MP3
Duration                         : 1h 3mn
Bit rate mode                    : Variable
Bit rate                         : 238 Kbps
Channel(s)                       : 2 channels
Sampling rate                    : 48.0 KHz
Compression mode                 : Lossy
Stream size                      : 108 MiB (23%)
Alignment                        : Aligned on interleaves
Interleave, duration             : 24 ms (0.60 video frame)
Writing library                  : LAME3.98.4
Doctor Who - 4x13 ITA xvid MP3 by Neminis.avi 497.712 MB
Gathering some info...

Register and log in Isohunt and see no captcha anymore!

4000 symbols left
Hash 2351023817DC102100AF88485CAE2589DCA294B9

Related torrents for "Doctor Who - 4x13 ITA xvid MP3 by Neminis"

Torrent search:

italian season 04 episode 13