imdb
rating

8.8
Doctor Who

Doctor Who (2005)

Action & Adventure, Drama, Sci-Fi & Fantasy

Full description

Doctor Who - 4x12 ITA xvid MP3 by Neminis

Size 361.533 MB   0 seeders     Added 2011-03-23 01:18:53

Stream torrent
Starting‥ You need BitLord! Get it from BitLord.com
To download or stream you need BitLord. Visit them at BitLord.com
Format                           : AVI
Format/Info                      : Audio Video Interleave
File size                        : 345 MiB
Duration                         : 45mn 36s
Overall bit rate                 : 1 057 Kbps

Video
ID                               : 0
Format                           : MPEG-4 Visual
Format profile                   : Advanced Simple@L5
Format settings, BVOP            : 2
Format settings, QPel            : No
Format settings, GMC             : No warppoints
Format settings, Matrix          : Default (H.263)
Codec ID                         : XVID
Codec ID/Hint                    : XviD
Duration                         : 45mn 36s
Bit rate                         : 802 Kbps
Width                            : 704 pixels
Height                           : 576 pixels
Display aspect ratio             : 1.222
Frame rate                       : 25.000 fps
Standard                         : PAL
Color space                      : YUV
Chroma subsampling               : 4:2:0
Bit depth                        : 8 bits
Scan type                        : Progressive
Compression mode                 : Lossy
Bits/(Pixel*Frame)               : 0.079
Stream size                      : 261 MiB (76%)
Writing library                  : XviD 1.2.1 (UTC 2008-12-04)

Audio
ID                               : 1
Format                           : MPEG Audio
Format version                   : Version 1
Format profile                   : Layer 3
Mode                             : Joint stereo
Mode extension                   : MS Stereo
Codec ID                         : 55
Codec ID/Hint                    : MP3
Duration                         : 45mn 35s
Bit rate mode                    : Variable
Bit rate                         : 242 Kbps
Channel(s)                       : 2 channels
Sampling rate                    : 48.0 KHz
Compression mode                 : Lossy
Stream size                      : 79.1 MiB (23%)
Alignment                        : Aligned on interleaves
Interleave, duration             : 24 ms (0.60 video frame)
Doctor Who - 4x12 ITA xvid MP3 by Neminis.avi 361.533 MB
Gathering some info...

Register and log in Isohunt and see no captcha anymore!

4000 symbols left
Hash 9BA1018C0C53D9B5A3288526B64F5D203194ABC0

Related torrents for "Doctor Who - 4x12 ITA xvid MP3 by Neminis"

Torrent search:

italian season 04 episode 12