Coldplay - Parachutes (2000) (EAC, FLAC, CUE)

Size 277.406 MB   6 seeders     Added 2011-03-27 17:14:42

Stream torrent
Starting‥ You need BitLord! Get it from BitLord.com
3.7
To download or stream you need BitLord. Visit them at BitLord.com
Exact Audio Copy V1.0 beta 1 from 15. November 2010



EAC extraction logfile from 26. March 2011, 12:27



Coldplay / Parachutes



Used drive  : Optiarc DVD RW AD-7200S   Adapter: 0  ID: 0



Read mode               : Secure

Utilize accurate stream : Yes

Defeat audio cache      : No

Make use of C2 pointers : Yes



Read offset correction                      : 48

Overread into Lead-In and Lead-Out          : No

Fill up missing offset samples with silence : Yes

Delete leading and trailing silent blocks   : No

Null samples used in CRC calculations       : No

Used interface                              : Native Win32 interface for Win NT & 2000

Gap handling                                : Appended to previous track



Used output format              : User Defined Encoder

Selected bitrate                : 768 kBit/s

Quality                         : High

Add ID3 tag                     : No

Command line compressor         : C:\Programmi\Exact Audio Copy\FLAC\FLAC.EXE

Additional command line options : -8 -V -T "ARTIST=%a" -T "TITLE=%t" -T "ALBUM=%g" -T "DATE=%y" -T "TRACKNUMBER=%n" -T "GENRE=%m" -T "COMMENT=%e" %j--picture="%i"%j %s -o %d





TOC of the extracted CD



     Track |   Start  |  Length  | Start sector | End sector 

    ---------------------------------------------------------

        1  |  0:00.00 |  2:17.20 |         0    |    10294   

        2  |  2:17.20 |  4:59.50 |     10295    |    32769   

        3  |  7:16.70 |  5:18.60 |     32770    |    56679   

        4  | 12:35.55 |  3:47.05 |     56680    |    73709   

        5  | 16:22.60 |  4:29.15 |     73710    |    93899   

        6  | 20:52.00 |  4:30.67 |     93900    |   114216   

        7  | 25:22.67 |  0:46.25 |    114217    |   117691   

        8  | 26:09.17 |  4:14.18 |    117692    |   136759   

        9  | 30:23.35 |  4:09.32 |    136760    |   155466   

       10  | 34:32.67 |  7:15.25 |    155467    |   188116   





Track  1



     Filename L:\musica_temp\Coldplay - Parachutes (2000) (FLAC, EAC, CUE)\Coldplay - Parachutes - 01 - Don't Panic.wav



     Pre-gap length  0:00:02.00



     Peak level 100.0 %

     Extraction speed 9.9 X

     Track quality 100.0 %

     Copy CRC 3CB313F5

     Accurately ripped (confidence 6)  [ABFCD4B2]

     Copy OK



Track  2



     Filename L:\musica_temp\Coldplay - Parachutes (2000) (FLAC, EAC, CUE)\Coldplay - Parachutes - 02 - Shiver.wav



     Peak level 100.0 %

     Extraction speed 14.8 X

     Track quality 100.0 %

     Copy CRC 2D5A6F6D

     Accurately ripped (confidence 6)  [95B5F084]

     Copy OK



Track  3



     Filename L:\musica_temp\Coldplay - Parachutes (2000) (FLAC, EAC, CUE)\Coldplay - Parachutes - 03 - Spies.wav



     Peak level 100.0 %

     Extraction speed 11.3 X

     Track quality 100.0 %

     Copy CRC F0987C03

     Accurately ripped (confidence 6)  [6BE94A20]

     Copy OK



Track  4



     Filename L:\musica_temp\Coldplay - Parachutes (2000) (FLAC, EAC, CUE)\Coldplay - Parachutes - 04 - Sparks.wav



     Peak level 100.0 %

     Extraction speed 10.7 X

     Track quality 100.0 %

     Copy CRC BDF6906E

     Accurately ripped (confidence 6)  [BEDBAF50]

     Copy OK



Track  5



     Filename L:\musica_temp\Coldplay - Parachutes (2000) (FLAC, EAC, CUE)\Coldplay - Parachutes - 05 - Yellow.wav



     Peak level 100.0 %

     Extraction speed 10.5 X

     Track quality 100.0 %

     Copy CRC 464CB670

     Accurately ripped (confidence 6)  [F8294C62]

     Copy OK



Track  6



     Filename L:\musica_temp\Coldplay - Parachutes (2000) (FLAC, EAC, CUE)\Coldplay - Parachutes - 06 - Trouble.wav



     Peak level 100.0 %

     Extraction speed 12.7 X

     Track quality 100.0 %

     Copy CRC 549E67DB

     Accurately ripped (confidence 6)  [EFC377A9]

     Copy OK



Track  7



     Filename L:\musica_temp\Coldplay - Parachutes (2000) (FLAC, EAC, CUE)\Coldplay - Parachutes - 07 - Parachutes.wav



     Peak level 82.2 %

     Extraction speed 11.4 X

     Track quality 100.0 %

     Copy CRC 43C78EA8

     Accurately ripped (confidence 6)  [C7561F0B]

     Copy OK



Track  8



     Filename L:\musica_temp\Coldplay - Parachutes (2000) (FLAC, EAC, CUE)\Coldplay - Parachutes - 08 - High Speed.wav



     Peak level 100.0 %

     Extraction speed 13.0 X

     Track quality 100.0 %

     Copy CRC 3F6B6B30

     Accurately ripped (confidence 6)  [86CA9614]

     Copy OK



Track  9



     Filename L:\musica_temp\Coldplay - Parachutes (2000) (FLAC, EAC, CUE)\Coldplay - Parachutes - 09 - We Never Change.wav



     Peak level 100.0 %

     Extraction speed 12.2 X

     Track quality 100.0 %

     Copy CRC 01C13D1B

     Accurately ripped (confidence 6)  [16D9E17B]

     Copy OK



Track 10



     Filename L:\musica_temp\Coldplay - Parachutes (2000) (FLAC, EAC, CUE)\Coldplay - Parachutes - 10 - Everything's Not Lost.wav



     Peak level 100.0 %

     Extraction speed 10.6 X

     Track quality 100.0 %

     Copy CRC 136E28BE

     Accurately ripped (confidence 6)  [287BB099]

     Copy OK





All tracks accurately ripped



No errors occurred



End of status report
Coldplay - Parachutes (2000) (FLAC, EAC, CUE)/Coldplay - Parachutes - 10 - Everything's Not Lost.flac 44.257 MB
Coldplay - Parachutes (2000) (FLAC, EAC, CUE)/Coldplay - Parachutes - 02 - Shiver.flac 36.707 MB
Coldplay - Parachutes (2000) (FLAC, EAC, CUE)/Coldplay - Parachutes - 03 - Spies.flac 36.811 MB
Gathering some info...

Register and log in Isohunt and see no captcha anymore!

4000 symbols left
Hash 7865a44a0a4e7f84fa7368874310103d98566fa3