Punch

Punch (2014)

Full description

Sucker Punch 2011 TS AC3 XViD IMAGiNE

Size 1.014 GB   0 seeders     Added 2011-03-27 22:45:49

Stream torrent
Starting‥ You need BitLord! Get it from BitLord.com
To download or stream you need BitLord. Visit them at BitLord.com
[img]image[/img]
\n
\n
\nSucker Punch 2011 TS AC3 XViD IMAGiNE
\n
\nFormat : AVI
\nFormat/Info : Audio Video Interleave
\nFormat profile : OpenDML
\nDuration : 2h 13mn
\nOverall bit rate : 1 206 Kbps
\nWriting application : VirtualDubMod 1.5.10.2 (build 2542/release)
\nWriting library : VirtualDubMod build 2542/release
\nOriginal source form : MAX TORRENTZ
\nCopyright : SIGISMUNT
\n
\nVideo
\nID : 0
\nFormat : MPEG-4 Visual
\nFormat profile : AdvancedSimple@L5
\nFormat settings, BVOP : Yes
\nFormat settings, QPel : No
\nFormat settings, GMC : No warppoints
\nFormat settings, Matrix : Default (H.263)
\nMuxing mode : Packed bitstream
\nCodec ID : XVID
\nCodec ID/Hint : XviD
\nDuration : 2h 13mn
\nBit rate : 1 010 Kbps
\nWidth : 640 pixels
\nHeight : 272 pixels
\nDisplay aspect ratio : 2.35:1
\nFrame rate : 23.976 fps
\nResolution : 24 bits
\nColorimetry : 4:2:0
\nScan type : Progressive
\nBits/(Pixel*Frame) : 0.242
\nStream size : 962 MiB (84%)
\nWriting library : XviD 57
\n
\nAudio
\nID : 1
\nFormat : MPEG Audio
\nFormat version : Version 1
\nFormat profile : Layer 3
\nCodec ID : 55
\nCodec ID/Hint : MP3
\nDuration : 2h 13mn
\nBit rate mode : Constant
\nBit rate : 192 Kbps
\nChannel(s) : 2 channels
\nSampling rate : 48.0 KHz
\nResolution : 16 bits
\nStream size : 183 MiB (16%)
\nAlignment : Aligned on interleaves
\nInterleave, duration : 712 ms (17.08 video frames)
\nInterleave, preload duration : 216 ms
\nWriting library : LAME3.98.2
\n
\nSource: DVD (perfect a/v/sync quality+filtered audio with additional 400% volume , sample is included)
\n
\nSucker Punch 2011 TS AC3 XViD IMAGiNE Torrent Free Download
\n
\nSCREENSHOTS :
\n
\n
\n[img]image[/img]
\n[img]image[/img]
\n[img]image[/img]
\n[img]image[/img]
\n[img]image[/img]
\n[img]image[/img]
\n[img]image[/img]
\n[img]image[/img]
\n[img]image[/img]
\n][img]image[/img]
\n[img]image[/img]
\n[img]image[/img]
\n[img]image[/img]
\n[img]image[/img]
\n[img]image[/img]
\n[img]image[/img]
\n[img]image[/img]
\n[img]image[/img]
\n[img]image[/img]
\n[img]image[/img]
\n[img]image[/img]
\n
\n
\nTorrent Client - Preferences - Bandwidth - Number of connections - Set aprox. 500 for each
\nTorrent Client - Preferences - BiTorrent - Protocol Encryption - Forced
\nBandwidth Allocation - High (Set download/upload limit - Unlimited)
\nStop Other Active Torrents - Start downloading and wait for connections.
\nEnjoy and Seed for at least 1:1 ratio. Don\'t forget to say thanks/leave reviews.
\nBefore downloading you should check/google search sample \"release name\"\"sample\".
\nGreets to all actual/future p2p/scene QUALITY groups and affiliate websites.
\nDon\'t trust IMDb robot or bad ratings,always watch some trailers first.
\nPlease spread this release/torrent to your friends/forums/etc.
\nIf you need translation subs visit some subtitles sites.
\nReport if you see online streaming or other spam links.
\nRecommended movie player VLC PLAYER.
Sucker Punch 2011 TS AC3 XViD IMAGiNE/Donate.nfo 4.858 KB
Sucker Punch 2011 TS AC3 XViD IMAGiNE/Subs[ENG].srt 136.693 KB
Sucker Punch 2011 TS AC3 XViD IMAGiNE/Sucker Punch - Official Trailer 2 [HD] [www.keepvid.com].mp4 50.886 MB
Gathering some info...

Register and log in Isohunt and see no captcha anymore!

4000 symbols left
Hash ac82092cea9a7dbe83fe6fb0a4810a3ac61f50b1

Related torrents for "Sucker Punch 2011 TS AC3 XViD IMAGiNE"

Torrent search:

telesync 2011