imdb
rating

7.0
Another Earth

Another Earth (2011)

Drama, Science Fiction

Full description
quality   dvdrip hd bd x264 h264 fullhd dvdr

Another Year[2011]DvDrip[Eng]-FXG

Size 805.754 MB   0 seeders     Added 2011-03-29 13:12:09

Stream torrent
Starting‥ You need BitLord! Get it from 1BitLord.com
To download or stream you need BitLord. Visit them at BitLord.com
Format : AVI
\nFormat/Info : Audio Video Interleave
\nFormat profile : OpenDML
\nFile size : 1.20 GiB
\nDuration : 1h 34mn
\nOverall bit rate : 1 824 Kbps
\nWriting application : VirtualDubMod 1.5.10.2 (build 2542/release)
\nWriting library : VirtualDubMod build 2542/release
\nOriginal source form : MAX TORRENTZ
\n
\nVideo
\nID : 0
\nFormat : MPEG-4 Visual
\nFormat profile : AdvancedSimple@L5
\nFormat settings, BVOP : Yes
\nFormat settings, QPel : No
\nFormat settings, GMC : No warppoints
\nFormat settings, Matrix : Custom
\nCodec ID : XVID
\nCodec ID/Hint : XviD
\nDuration : 1h 34mn
\nBit rate : 1 629 Kbps
\nWidth : 720 pixels
\nHeight : 400 pixels
\nDisplay aspect ratio : 16:9
\nFrame rate : 23.976 fps
\nOriginal frame rate : 25.000 fps
\nResolution : 24 bits
\nColorimetry : 4:2:0
\nScan type : Progressive
\nBits/(Pixel*Frame) : 0.236
\nStream size : 1.08 GiB (89%)
\nWriting library : XviD 58
\n
\nAudio
\nID : 1
\nFormat : MPEG Audio
\nFormat version : Version 1
\nFormat profile : Layer 3
\nCodec ID : 55
\nCodec ID/Hint : MP3
\nDuration : 1h 34mn
\nBit rate mode : Constant
\nBit rate : 192 Kbps
\nChannel(s) : 2 channels
\nSampling rate : 48.0 KHz
\nResolution : 16 bits
\nStream size : 130 MiB (11%)
\nAlignment : Aligned on interleaves
\nInterleave, duration : 489 ms (11.73 video frames)
\nInterleave, preload duration : 216 ms
Another Year[2011]DvDrip[Eng]-FXG/Another Year[2011]DvDrip[Eng]-FXG.rar 805.754 MB
Another Year[2011]DvDrip[Eng]-FXG/info.txt 109 B
Another Year[2011]DvDrip[Eng]-FXG/Torrent downloaded from Demonoid.com.txt 44 B
Gathering some info...

Register and log in Isohunt and see no captcha anymore!

4000 symbols left
Hash 7d09fcbdee5d727ce329368795c04ad2496058bd

Related torrents for "Another Year[2011]DvDrip[Eng]-FXG"

Torrent search:

dvdrip english 2011