imdb
rating

4.8
The Speed of Thought

The Speed of Thought (2011)

Action, Science Fiction, Thriller

Full description
quality   dvdrip h264 bd x264 fullhd

The Speed of Thought 2011 DVDRip x H264 {480MB}

Size 505.466 MB   0 seeders     Added 2011-03-29 16:55:05

Stream torrent
Starting‥ You need BitLord! Get it from BitLord.com
To download or stream you need BitLord. Visit them at BitLord.com
The Speed of Thought (2011)

Plot

Joshua Lazarus (Nick Stahl) is a telepath who has been raised in a NSA foster home. Lazarus helps the government by using his abilities. He is told by the agency that the telepathy is a side effect of Widmann's Disease, and that he will become insane in time and eventually die from the illness. However, Lazarus meets a woman with similar powers (Taryn Manning) who does not have any sign of the disease, launching Lazarus to confront the lies he has been told



Infomation

Video
ID : 1
Format : AVC
Format/Info : Advanced Video Codec
Format profile : Baseline@L3.0
Format settings, CABAC : No
Format settings, ReFrames : 1 frame
Format settings, GOP : M=1, N=12
Codec ID : avc1
Codec ID/Info : Advanced Video Coding
Duration : 1h 34mn
Bit rate mode : Variable
Bit rate : 588 Kbps
Width : 640 pixels
Height : 352 pixels
Display aspect ratio : 16:9
Frame rate mode : Constant
Frame rate : 23.976 fps
Color space : YUV
Chroma subsampling : 4:2:0
Bit depth : 8 bits
Scan type : Progressive
Bits/(Pixel*Frame) : 0.109
Stream size : 395 MiB (82%)
Language : English
Encoded date : UTC 2011-03-25 10:36:05
Tagged date : UTC 2011-03-25 10:36:05

Audio
ID : 2
Format : AAC
Format/Info : Advanced Audio Codec
Format profile : LC
Codec ID : 40
Duration : 1h 34mn
Bit rate mode : Constant
Bit rate : 128 Kbps
Channel(s) : 2 channels
Channel positions : Front: L R
Sampling rate : 48.0 KHz
Compression mode : Lossy
Stream size : 84.0 MiB (17%)
Language : English
Encoded date : UTC 2011-03-25 10:36:05
Tagged date : UTC 2011-03-25 10:36:05
Language : English 
The Speed of Thought 2011 DVDRip x H264 {480MB} [sue].mp4 505.466 MB
Gathering some info...

Register and log in Isohunt and see no captcha anymore!

4000 symbols left
Hash 33733ec5e21ceb563a3ac0457c98537325030713

Related torrents for "The Speed of Thought 2011 DVDRip x H264 {480MB}"

Torrent search:

dvdrip h264 2011