The.Scientist.2010.DVDRip.DivX-QSSDivx

Size 891.244 MB   0 seeders     Added 2011-03-29 17:03:14

Stream torrent
Starting‥ You need BitLord! Get it from BitLord.com
To download or stream you need BitLord. Visit them at BitLord.com
General
Complete name: The.Scientist.2010.DVDRip.DivX-QSSDivx.avi
Format : AVI
Format/Info: Audio Video Interleave
File size: 850 MiB
Duration : 1h 27mn
Overall bit rate : 1 355 Kbps

Video
ID : 0
Format : MPEG-4 Visual
Format profile : Simple@L1
Format settings, BVOP: No
Format settings, QPel: No
Format settings, GMC : No warppoints
Format settings, Matrix: Default (H.263)
Codec ID : DX50
Codec ID/Hint: DivX 5
Duration : 1h 27mn
Bit rate : 1 214 Kbps
Width: 720 pixels
Height : 480 pixels
Display aspect ratio : 16:9
Frame rate : 23.976 fps
Standard : NTSC
Resolution : 8 bits
Colorimetry: 4:2:0
Scan type: Progressive
Bits/(Pixel*Frame) : 0.147
Stream size: 762 MiB (90%)
Writing library: Lavc51.40.4

Audio
ID : 1
Format : MPEG Audio
Format version : Version 1
Format profile : Layer 3
Mode : Joint stereo
Format_Settings_ModeExtension: MS Stereo
Codec ID : 55
Codec ID/Hint: MP3
Duration : 1h 27mn
Bit rate mode: Constant
Bit rate : 128 Kbps
Channel(s) : 2 channels
Sampling rate: 48.0 KHz
Video delay: 24ms
Stream size: 80.3 MiB (9%)
Alignment: Split accross interleaves
Interleave, duration : 24 ms (0.58 video frame)
Writing library: LAME3.96.1
There are no comments yet. Be the First to Comment!

Quick Comment
Decrease Size
Increase Size
Insert bold text 	Insert italic text 	Insert underlined text 		Align text to the left 	Align text to the centerr 	Align text to the right 	Justify text 		Insert quoted text 	Code 	Insert formatted PHP code 	Insert formatted SQL code 		
Colors
		Insert hyperlink 	Insert image 	Insert email address 		
Smilies
		
		
		
		
		
		
		
		
		
		
		
		
		
		
		
		
		
		
		
		
		
		
		
		
		
		
		
		
		
		
		
		
		
	Path 	Size
avi  	The.Scientist.2010.DVDRip.DivX-QSSDivx.avi 	849.96 MB
2 Seeder(s)
USER/IP 	CONN. 	UP 	U.RATE 	DOWN 	D.RATE 	RATIO 	DONE 	SINCE 	IDLE 	CLIENT
oskar84
94.169.239.29:56345 	Yes 	0.00 KB 	0.00 KB/s 	0.00 KB 	0.00 KB/s 	--- 	100.00% 	54 Minutes, 9 Seconds 	21 Minutes, 29 Seconds 	uTorrent/2210(25130)
Technodj [Donated]
94.23.35.8:18901 	Yes 	0.00 KB 	0.00 KB/s 	0.00 KB 	0.00 KB/s 	--- 	100.00% 	2 Days, 8 Hours, 34 Minutes, 45 Seconds 	20 Minutes, 9 Seconds 	rtorrent/0.8.6/0.12.6

0 Leecher(s)
USER/IP 	CONN. 	UP 	U.RATE 	DOWN 	D.RATE 	RATIO 	DONE 	SINCE 	IDLE 	CLIENT
Please report this torrent in opened popup window.

Bookmark - Remove Bookmark
Edit This Torrent - Hit & Run - Delete Torrent - Close Comment - Torrent Info
Delete torrent. Reason:
Dead 	0 seeders, 0 leechers = 0 peers total
Duplicate 	
Nuked 	
Rules Broken: 	(req)
Other 	(req)
The.Scientist.2010.DVDRip.DivX-QSSDivx/The.Scientist.2010.DVDRip.DivX-QSSDivx.avi 891.244 MB
Gathering some info...

Register and log in Isohunt and see no captcha anymore!

4000 symbols left
Hash 25dc74052912687172ab3e78fe52e62ed0972b03