The.Unforgiving.2010.DVDRip.XviD-NoGRP

Size 751.44 MB   0 seeders     Added 2011-04-01 20:06:22

Stream torrent
Starting‚Ä• You need BitLord! Get it from BitLord.com
To download or stream you need BitLord. Visit them at BitLord.com
eneral
Complete name : The.Unforgiving.2010.DVDRip.XviD-NoGRP.avi
Format : AVI
Format/Info : Audio Video Interleave
File size : 717 MiB
Duration : 1h 15mn
Overall bit rate : 1 332 Kbps
Movie name : THEUNFORGIVING.Title2.DVDRip
Writing application : Lavf52.78.4
Original source form/Name : THEUNFORGIVING

Video
ID : 0
Format : AVC
Format/Info : Advanced Video Codec
Codec ID : H264
Duration : 1h 15mn
Bit rate : 1 097 Kbps
Width : 720 pixels
Height : 406 pixels
Display aspect ratio : 16:9
Frame rate : 25.000 fps
Bits/(Pixel*Frame) : 0.150
Stream size : 590 MiB (82%)

Audio
ID : 1
Format : AC-3
Format/Info : Audio Coding 3
Format_Settings_ModeExtension : CM (complete main)
Codec ID : 2000
Duration : 1h 15mn
Bit rate mode : Constant
Bit rate : 224 Kbps
Channel(s) : 2 channels
Channel positions : Front: L R
Sampling rate : 48.0 KHz
Stream size : 120 MiB (17%)
Alignment : Aligned on interleaves
Interleave, duration : 32 ms (0.80 video frame)
Interleave, preload duration : 32 ms 
The.Unforgiving.2010.DVDRip.XviD-NoGRP/The.Unforgiving.2010.DVDRip.XviD-NoGRP.avi 751.44 MB
Gathering some info...

Register and log in Isohunt and see no captcha anymore!

4000 symbols left
Hash f3b5c78616c6fe930e53b1eb2da4647589885ed8