Jennifer Lopez - On The Floor (ft Pitbull) [TNT Village]

Size 123.031 MB   0 seeders     Added 2011-04-05 03:56:55

Stream torrent
Starting‥ You need BitLord! Get it from 1BitLord.com
10
To download or stream you need BitLord. Visit them at BitLord.com
Testo

Hey oh ay oh ay
Let’s take the whole world on a ride
J-LO!
Hey oh ay oh ay
Let’s take the whole world on a ride
Mr worldwide
Darling get on the floor
Darling get on the floor
Darling get on the floor
Darling get on the floor
Darling get on the floor
Darling I want the whole world to
Get on the floor
Darling get on the floor
Darling get on the floor
Darling get on the floor
Darling I want the whole world to
Get on the floor

I’m loose
And everybody knows I get off the train
Baby it’s the truth
I’m like inception I play with your brain
So I don’t sleep I snooze
I don’t play no games so don’t get it confused no
Cos you will lose yeah
Now pump it up
And back it up like a Tonka truck
That badonka donk is like a trunk full of bass on an old school Chevy

All I need is some vodka and some… coke
And watch… get donkey konged
… if you’re ready for things to get heavy
I get on the floor and act a fool if you let me
Don’t believe me just vet me
My name ain’t Keath but I see why you Sweat me
L.A. Miami New York
Say no more get on the floor

Dance the night away
Live your life and stay out on the floor
Dance the night away
Grab somebody drink a little more
La la la la la la la la la la la la la la
Tonight we gon’ be it on the floor
La la la la la la la la la la la la la la
Tonight we gon’ be it on the floor

I know you gotta clap your hands on the floor
And keep on rocking work it up on the floor
If you’re a criminal kill it on the floor
Steal it quick on the floor
On the floor
Don’t stop keep it moving put your drinks up
It’s getting ill it’s getting sick on the floor
We never quit we never rest on the floor
If… I may die on the floor
Cos… London to Ibiza
Straight to L.A. New York
Vegas to Africa

Dance the night away
Live your life and stay out on the floor
Dance the night away
Grab somebody drink a little more
La la la la la la la la la la la la la la
Tonight we gon’ be it on the floor
La la la la la la la la la la la la la la
Tonight we gon’ be it on the floor
La la la la la la la la la la la la la la
Tonight we gon’ be it on the floor
La la la la la la la la la la la la la la
Tonight we gon’ be it on the floor

Freak it off kick it up
Raise the roof wreck the dancehall
… these walls light it up
Make some noise ohhh

Dance the night away
Live your life and stay out on the floor
Dance the night away
Grab somebody drink a little more
La la la la la la la la la la la la la la
Tonight we gon’ be it on the floor
La la la la la la la la la la la la la la
Tonight we gon’ be it on the floor
La la la la la la la la la la la la la la
Tonight we gon’ be it on the floor
La la la la la la la la la la la la la la
Tonight we gon’ be it on the floor
Tonight we gon’ be it on the floor
Tonight we gon’ be it on the flo




QUOTE
Format: MPEG-4
Format profile: Base Media / Version 2
Codec ID : mp42
File size: 130 MiB
Duration: 3mn 55s
Overall bit rate: 4 644 Kbps


Video
Format                           : AVC
Format/Info                      : Advanced Video Codec
Format profile                   : High@L4.0
Codec ID/Info                    : Advanced Video Coding
Duration                         : 3mn 55s
Bit rate mode                    : Variable
Bit rate                         : 4 513 Kbps
Maximum bit rate                 : 14.9 Mbps
Width                            : 1 920 pixels
Height                           : 1 080 pixels
Display aspect ratio             : 16:9
Frame rate mode                  : Variable
Frame rate                       : 23.976 fps
Minimum frame rate               : 23.810 fps
Maximum frame rate               : 24.390 fps
Scan type                        : Progressive
Stream size                      : 127 MiB (97%)


Audio
Format                           : AAC
Format/Info                      : Advanced Audio Codec
Format version                   : Version 4
Format profile                   : LC
Format settings, SBR             : No
Codec ID                         : 40
Duration                         : 3mn 55s
Bit rate mode                    : Variable
Bit rate                         : 126 Kbps
Maximum bit rate                 : 153 Kbps
Channel(s)                       : 2 channels
Channel positions                : Front: L R
Sampling rate                    : 44.1 KHz
Stream size                      : 3.53 MiB (3%)
Jennifer Lopez - On The Floor (ft Pitbull).mp4 123.031 MB
Gathering some info...

Register and log in Isohunt and see no captcha anymore!

4000 symbols left
Hash a151fe33311b835bb2680d41dfc70479318f298a

Related torrents for "Jennifer Lopez - On The Floor (ft Pitbull) [TNT Village]"