imdb
rating

8.3
Full Metal Jacket

Full Metal Jacket (1987)

Drama, War

Full description

Full Metal Jacket (1987)[DVDRip][big_dad_e]

Size 1.577 GB   0 seeders     Added 2011-04-09 07:01:24

Stream torrent
Starting‥ You need BitLord! Get it from 1BitLord.com
10
To download or stream you need BitLord. Visit them at BitLord.com
[IMG]image[/IMG]
Full Metal Jacket (1987) Digitally Restored & Remastered

Director: Stanley Kubrick

Full Metal Jacket is a 1987 war film by Stanley Kubrick, based on the novel The Short-Timers by Gustav Hasford. It stars Matthew Modine, Vincent D'Onofrio, and former U.S. Marine Sergeant R. Lee Ermey. The title refers to the full metal jacket bullet used by infantry riflemen. The film follows a platoon of U.S. Marines through their training and depicts some of the experiences of two of them in the Tet Offensive (1968) during the Vietnam War.

There have been many movies made about the Vietnam war, from epics like Apocalypse Now, to the worthy Platoon and The Deer Hunter. However, nobody managed to show the dehumanising effect of war as memorably as Stanley Kubrick did with Full Metal Jacket.

The film received a nomination for an Academy Award for Best Writing for an adapted screenplay. Ermey was nominated for a Golden Globe for Best Supporting Actor.

Full Metal Jacket ranks 457th on Empire's 2008 list of the 500 greatest movies of all time.

Media Info:
General
Complete name                    : J:\Seeding\Full Metal Jacket (1987)[DVDRip][big_dad_e™]\Full Metal Jacket (1987)[DVDRip][big_dad_e™].avi
Format                           : AVI
Format/Info                      : Audio Video Interleave
Format profile                   : OpenDML
File size                        : 1.47 GiB
Duration                         : 1h 56mn
Overall bit rate                 : 1 804 Kbps
Movie name                       : FULL_METAL_JACKET.Title1.DVDRip
Writing application              : Lavf52.78.4
Original source form/Name        : FULL_METAL_JACKET

Video
ID                               : 0
Format                           : MPEG-4 Visual
Format profile                   : Advanced Simple@L5
Format settings, BVOP            : 2
Format settings, QPel            : No
Format settings, GMC             : No warppoints
Format settings, Matrix          : Default (H.263)
Muxing mode                      : Packed bitstream
Codec ID                         : XVID
Codec ID/Hint                    : XviD
Duration                         : 1h 56mn
Bit rate                         : 1 470 Kbps
Width                            : 640 pixels
Height                           : 480 pixels
Display aspect ratio             : 4:3
Frame rate                       : 23.976 fps
Color space                      : YUV
Chroma subsampling               : 4:2:0
Bit depth                        : 8 bits
Scan type                        : Progressive
Compression mode                 : Lossy
Bits/(Pixel*Frame)               : 0.200
Stream size                      : 1.20 GiB (81%)
Writing library                  : XviD 1.2.1 (UTC 2008-12-04)

Audio
ID                               : 1
Format                           : MPEG Audio
Format version                   : Version 1
Format profile                   : Layer 3
Mode                             : Joint stereo
Codec ID                         : 55
Codec ID/Hint                    : MP3
Duration                         : 1h 56mn
Bit rate mode                    : Constant
Bit rate                         : 320 Kbps
Channel(s)                       : 2 channels
Sampling rate                    : 48.0 KHz
Compression mode                 : Lossy
Stream size                      : 88.0 MiB (6%)
Alignment                        : Aligned on interleaves
Interleave, duration             : 73 ms (1.74 video frames)
Interleave, preload duration     : 24 ms
Writing library                  : LAME

File Scan:
Malwarebytes' Anti-Malware 1.50.1.1100
www.malwarebytes.org

Database version: 6307
4/7/2011 7:20:58 PM
mbam-log-2011-04-07 (19-20-58).txt

Scan type: Quick scan
Objects scanned: 5
Time elapsed: 46 second(s)

Memory Processes Infected: 0
Memory Modules Infected: 0
Registry Keys Infected: 0
Registry Values Infected: 0
Registry Data Items Infected: 0
Folders Infected: 0
Files Infected: 0

Memory Processes Infected:
(No malicious items detected)

Memory Modules Infected:
(No malicious items detected)

Registry Keys Infected:
(No malicious items detected)

Registry Values Infected:
(No malicious items detected)

Registry Data Items Infected:
(No malicious items detected)

Folders Infected:
(No malicious items detected)

Files Infected:
(No malicious items detected)
ALWAYS SEED & THANKS SEEDERS!
[URL=http://]http://www.imdb.com/title/tt0093058/[/URL]
Full Metal Jacket (1987)[DVDRip][big_dad_e™]/Full Metal Jacket (1987)[DVDRip][big_dad_e™].avi 1.577 GB
Full Metal Jacket (1987)[DVDRip][big_dad_e™]/filesharing_not_illegal_yet.jpg 265.077 KB
Full Metal Jacket (1987)[DVDRip][big_dad_e™]/Full Metal Jacket (1987)[DVDRip][big_dad_e™].jpg 58.063 KB
Gathering some info...

Register and log in Isohunt and see no captcha anymore!

4000 symbols left
Hash 342bcc41c4c9ff7c4a9243e6eb577c8eb05c81a5

Related torrents for "Full Metal Jacket (1987)[DVDRip][big_dad_e]"

Torrent search:

dvdrip 1987