Nicole Scherzinger - Don't Hold Your Breath [TNT Village]

Size 53.668 MB   0 seeders     Added 2011-04-15 07:36:47

Stream torrent
Starting‥ You need BitLord! Get it from 1BitLord.com
10
To download or stream you need BitLord. Visit them at BitLord.com
Testo

Don't hold your breath 

You can't touch me now 
There's no feeling left 
If you think I'm coming back 
Don't hold your breath 
What you did to me 
Boy I can't forget 
If you think I'm coming back 
Don't hold your breath 

I was under your spell for such a long time, 
Couldn't break the chains 
You played with my heart, 
Tore me apart with all your lies and games 
It took all the strength I had 
But I crawled up on my feet again 
Now you're trying to lure me back 
But no, those days are gone, my friend 

I loved you so much that I thought someday that you could change 
But all you brought me was a heart full of pain 

You can't touch me now 
There's no feeling left 
If you think I'm coming back, 
Don't hold your breath 
What you did to me 
Boy I can't forget 
If you think I'm coming back, 
Don't hold your breath 
Don't hold your breath 

I was worried about you 
But you never cared about me none 
You took my money 
And I know that you, you could kill someone 
I gave you everything 
But nothing was ever enough 
You were always jealous over such crazy stuff 

You can't touch me now 
There's no feeling left 
If you think I'm coming back, 

Don't hold your breath 
What you did to me 
Boy I can't forget 
If you think I'm coming back, 
Don't hold your breath 
Don't hold your breath 

Move on, 
Don't look back 
I jumped off a train 
Running off the tracks 
Your days gone, 
Face the facts 
A bad movie ends 
And the screen fades to black 

What you did to me 
Boy I can't forget 
If you think I'm coming back 
(You can't touch me now) 

You can't touch me now 
There's no feeling left 
If you think I'm coming back, 
Don't hold your breath 
What you did to me 
Boy I can't forget 
If you think I'm coming back, 
Don't hold your breath 

You can't touch me now 
There's no feeling left 
If you think I'm coming back, 
Don't hold your breath 
What you did to me 
Boy I can't forget 
If you think I'm coming back, 
Don't hold your breath




QUOTE
Format: MPEG-4
Format profile: Base Media / Version 2
Codec ID : mp42
File size: 130 MiB
Duration: 3mn 55s
Overall bit rate: 4 644 Kbps


Video
Format                           : AVC
Format/Info                      : Advanced Video Codec
Format profile                   : High@L4.0
Codec ID/Info                    : Advanced Video Coding
Duration                         : 3mn 55s
Bit rate mode                    : Variable
Bit rate                         : 4 513 Kbps
Maximum bit rate                 : 14.9 Mbps
Width                            : 1 920 pixels
Height                           : 1 080 pixels
Display aspect ratio             : 16:9
Frame rate mode                  : Variable
Frame rate                       : 23.976 fps
Minimum frame rate               : 23.810 fps
Maximum frame rate               : 24.390 fps
Scan type                        : Progressive
Stream size                      : 127 MiB (97%)


Audio
Format                           : AAC
Format/Info                      : Advanced Audio Codec
Format version                   : Version 4
Format profile                   : LC
Format settings, SBR             : No
Codec ID                         : 40
Duration                         : 3mn 55s
Bit rate mode                    : Variable
Bit rate                         : 126 Kbps
Maximum bit rate                 : 153 Kbps
Channel(s)                       : 2 channels
Channel positions                : Front: L R
Sampling rate                    : 44.1 KHz
Stream size                      : 3.53 MiB (3%)
Nicole Scherzinger - Don't Hold Your Breath.mp4 53.668 MB
Gathering some info...

Register and log in Isohunt and see no captcha anymore!

4000 symbols left
Hash f588184839ca45ffec9efc9d3cf1370af4c9d948