Happy Family

Happy Family (2003)

Comedy

Full description

Madea's Big Happy Family 2011 iTALiAN AC3 DVDRip XviD IDN CREW avi

Size 914.582 MB   0 seeders     Added 2011-04-17 23:37:31

Stream torrent
Starting‥ You need BitLord! Get it from BitLord.com
To download or stream you need BitLord. Visit them at BitLord.com
[img]image[/img]



Title : Madea's Big Happy Family 2011 iTALiAN AC3 DVDRip XviD IDN CREW avi
Studio : Lionsgate 
Director : Tyler Perry 
Screenwriter : Tyler Perry 
Starring : Tyler Perry, Loretta Devine, Shad "Bow Wow" Moss, David Mann, Cassi Davis, Tamela Brown Mann, Lauren London, Isaiah Mustafa, 

Rodney Perry, Shannon Kane, Teyana Taylor, Natalie Desselle Reid 
Genre : Comedy | Drama 
MPAA Rating : PG-13 (for drug content, language and some mature thematic material)


Format                           : AVI
Format/Info                      : Audio Video Interleave
Format profile                   : OpenDML
Duration                         : 106 min.
Overall bit rate                 : 1 206 Kbps
Writing application              : VirtualDubMod 1.5.10.2 (build 2542/release)
Writing library                  : VirtualDubMod build 2542/release
Original source form             : MAX TORRENTZ
Copyright                        : SIGISMUNT

Video
ID                               : 0
Format                           : MPEG-4 Visual
Format profile                   : AdvancedSimple@L5
Format settings, BVOP            : Yes
Format settings, QPel            : No
Format settings, GMC             : No warppoints
Format settings, Matrix          : Default (H.263)
Muxing mode                      : Packed bitstream
Codec ID                         : XVID
Codec ID/Hint                    : XviD
Duration                         : 106 min.
Bit rate                         : 1 010 Kbps
Width                            : 640 pixels
Height                           : 272 pixels
Display aspect ratio             : 2.35:1
Frame rate                       : 23.976 fps
Resolution                       : 24 bits
Colorimetry                      : 4:2:0
Scan type                        : Progressive
Bits/(Pixel*Frame)               : 0.242
Stream size                      : 962 MiB (84%)
Writing library                  : XviD 57

Audio
ID                               : 1
Format                           : MPEG Audio
Format version                   : Version 1
Format profile                   : Layer 3
Codec ID                         : 55
Codec ID/Hint                    : MP3
Duration                         : 106 min.
Bit rate mode                    : Constant
Bit rate                         : 192 Kbps
Channel(s)                       : 2 channels
Sampling rate                    : 48.0 KHz
Resolution                       : 16 bits
Stream size                      : 183 MiB (16%)
Alignment                        : Aligned on interleaves
Interleave, duration             : 712 ms (17.08 video frames)
Interleave, preload duration     : 216 ms
Writing library                  : LAME3.98.2
 
Source: DVD (perfect a/v/sync quality+filtered audio with additional 400% volume , sample is included)

Madea's Big Happy Family 2011 iTALiAN AC3 DVDRip XviD IDN CREW avi Torrent Free Download

SCREENSHOTS :

[img]image[/img]
[img]image[/img]
[img]image[/img]
[img]image[/img]
[img]image[/img]
[img]image[/img]
[img]image[/img]
[img]image[/img]
[img]image[/img]
[img]image[/img]
[img]image[/img]
[img]image[/img]
[img]image[/img]
[img]image[/img]


Torrent Client - Preferences - Bandwidth - Number of connections - Set aprox. 500 for each 
Torrent Client - Preferences - BiTorrent - Protocol Encryption - Forced
Bandwidth Allocation - High (Set download/upload limit - Unlimited)
Stop Other Active Torrents - Start downloading and wait for connections.
Enjoy and Seed for at least 1:1 ratio. Don't forget to say thanks/leave reviews.
Before downloading you should check/google search sample "release name""sample".
Greets to all actual/future p2p/scene QUALITY groups and affiliate websites.
Don't trust IMDb robot or bad ratings,always watch some trailers first.
Please spread this release/torrent to your friends/forums/etc.
If you need translation subs visit some subtitles sites.
Report if you see online streaming or other spam links.
Recommended movie player VLC PLAYER.
Madea's Big Happy Family 2011 iTALiAN AC3 DVDRip XviD IDN CREW avi/Donate.nfo 4.858 KB
Madea's Big Happy Family 2011 iTALiAN AC3 DVDRip XviD IDN CREW avi/Madea's Big Happy Family 2011 iTALiAN AC3 DVDRip XviD IDN CREW avi.avi 863.876 MB
Madea's Big Happy Family 2011 iTALiAN AC3 DVDRip XviD IDN CREW avi/Madea's Big Happy Family.jpeg 594.791 KB
Gathering some info...

Register and log in Isohunt and see no captcha anymore!

4000 symbols left
Hash 7e8c19f019a05d9b73ab99b4d8d3e618bc38af2d

Related torrents for "Madea's Big Happy Family 2011 iTALiAN AC3 DVDRip XviD IDN CREW avi"

Torrent search:

dvdrip italian 2011