Water for Elephants 2011 iTALiAN AC3 5 1 BDDRip XviD TrTd CREW avi

Size 909.433 MB   0 seeders     Added 2011-04-21 16:30:10

Stream torrent
Starting‥ You need BitLord! Get it from BitLord.com
To download or stream you need BitLord. Visit them at BitLord.com
[img]image[/img]


Title : Water for Elephants 2011 iTALiAN AC3 5 1 BDDRip XviD TrTd CREW avi
Genre : Drama | Romance
MPAA Rating : PG-13
Duration : 122 min.
Director : Francis Lawrence
Starring : Reese Witherspoon | Robert Pattinson | Christoph Waltz | James Frain
Synopsis :
Based on the acclaimed bestseller, WATER FOR ELEPHANTS presents an unexpected romance in a uniquely 

compelling setting. Veterinary school student Jacob meets and falls in love with Marlena, a star performer in a circus 

of a bygone era. They discover beauty amidst the world of the Big Top, and come together through their compassion for 

a special elephant. Against all odds -- including the wrath of Marlena's charismatic but dangerous husband, August -- 

Jacob and Marlena find lif ...


Format                           : AVI
Format/Info                      : Audio Video Interleave
Format profile                   : OpenDML
Duration                         : 122 min.
Overall bit rate                 : 1 206 Kbps
Writing application              : VirtualDubMod 1.5.10.2 (build 2542/release)
Writing library                  : VirtualDubMod build 2542/release
Original source form             : MAX TORRENTZ
Copyright                        : SIGISMUNT

Video
ID                               : 0
Format                           : MPEG-4 Visual
Format profile                   : AdvancedSimple@L5
Format settings, BVOP            : Yes
Format settings, QPel            : No
Format settings, GMC             : No warppoints
Format settings, Matrix          : Default (H.263)
Muxing mode                      : Packed bitstream
Codec ID                         : XVID
Codec ID/Hint                    : XviD
Duration                         : 122 min.
Bit rate                         : 1 010 Kbps
Width                            : 640 pixels
Height                           : 272 pixels
Display aspect ratio             : 2.35:1
Frame rate                       : 23.976 fps
Resolution                       : 24 bits
Colorimetry                      : 4:2:0
Scan type                        : Progressive
Bits/(Pixel*Frame)               : 0.242
Stream size                      : 962 MiB (84%)
Writing library                  : XviD 57

Audio
ID                               : 1
Format                           : MPEG Audio
Format version                   : Version 1
Format profile                   : Layer 3
Codec ID                         : 55
Codec ID/Hint                    : MP3
Duration                         : 122 min.
Bit rate mode                    : Constant
Bit rate                         : 192 Kbps
Channel(s)                       : 2 channels
Sampling rate                    : 48.0 KHz
Resolution                       : 16 bits
Stream size                      : 183 MiB (16%)
Alignment                        : Aligned on interleaves
Interleave, duration             : 712 ms (17.08 video frames)
Interleave, preload duration     : 216 ms
Writing library                  : LAME3.98.2
 
Source: DVD (perfect a/v/sync quality+filtered audio with additional 400% volume , sample is included)

Water for Elephants 2011 iTALiAN AC3 5 1 BDDRip XviD TrTd CREW avi Torrent Free Download

SCREENSHOTS :

[img]image[/img]
[img]image[/img]
[img]image[/img]
[img]image[/img]
[img]image[/img]
[img]image[/img]
[img]image[/img]
[img]image[/img]
[img]image[/img]
[img]image[/img]
[img]image[/img]
[img]image[/img]
[img]image[/img]
[img]image[/img]
[img]image[/img]
[img]image[/img]
[img]image[/img]
[img]image[/img]
[img]image[/img]
[img]image[/img]
[img]image[/img]
[img]image[/img]
[img]image[/img]
[img]image[/img]
[img]image[/img]


Torrent Client - Preferences - Bandwidth - Number of connections - Set aprox. 500 for each 
Torrent Client - Preferences - BiTorrent - Protocol Encryption - Forced
Bandwidth Allocation - High (Set download/upload limit - Unlimited)
Stop Other Active Torrents - Start downloading and wait for connections.
Enjoy and Seed for at least 1:1 ratio. Don't forget to say thanks/leave reviews.
Before downloading you should check/google search sample "release name""sample".
Greets to all actual/future p2p/scene QUALITY groups and affiliate websites.
Don't trust IMDb robot or bad ratings,always watch some trailers first.
Please spread this release/torrent to your friends/forums/etc.
If you need translation subs visit some subtitles sites.
Report if you see online streaming or other spam links.
Recommended movie player VLC PLAYER.
Water for Elephants 2011 iTALiAN AC3 5 1 BDDRip XviD TrTd CREW avi/Donate.nfo 4.858 KB
Water for Elephants 2011 iTALiAN AC3 5 1 BDDRip XviD TrTd CREW avi/Subs[ENG].srt 136.693 KB
Water for Elephants 2011 iTALiAN AC3 5 1 BDDRip XviD TrTd CREW avi/Water for Elephants 2011 iTALiAN AC3 5 1 BDDRip XviD TrTd CREW avi.avi 887.993 MB
Gathering some info...

Register and log in Isohunt and see no captcha anymore!

4000 symbols left
Hash d0af6d59bd5a3abcd798d9e418aacf8419b6d6d7