imdb
rating

7.2
Rango

Rango (2011)

Adventure, Animation, Comedy, Western, Family

Full description

Rango 2011 BDRip XviD

Size 798.857 MB   0 seeders     Added 2011-04-28 21:51:48

Stream torrent
Starting‥ You need BitLord! Get it from BitLord.com
To download or stream you need BitLord. Visit them at BitLord.com
Video
Format profile : High@L4.1
Format settings, CABAC : Yes
Format settings, ReFrames : 3 frames
Format settings, GOP : M=1, N=13
Codec ID : avc1
Codec ID/Info : Advanced Video Coding
Duration : 1h 41mn
Bit rate mode : Variable
Bit rate : 1 432 Kbps
Maximum bit rate : 5 438 Kbps
Width : 720 pixels
Height : 304 pixels
Display aspect ratio : 2.35:1
Frame rate mode : Constant
Frame rate : 25.000 fps
Color space : YUV
Chroma subsampling : 4:2:0
Bit depth : 8 bits
Scan type : Progressive
Bits/(Pixel*Frame) : 0.262
Stream size : 1.02 GiB (86%)
Writing library : x264

Audio
ID : 2
Format : AAC
Format/Info : Advanced Audio Codec
Format version : Version 4
Format profile : LC
Format settings, SBR : No
Codec ID : 40
Duration : 1h 41mn
Bit rate mode : Variable
Bit rate : 224 Kbps
Maximum bit rate : 274 Kbps
Channel(s) : 2 channels
Channel positions : Front: L R
Sampling rate : 44.1 KHz
Stream size : 163 MiB (14%)



Plot:
Rango is an ordinary chameleon who accidentally winds up in the town of Dirt, a lawless outpost in the Wild West in desperate need of a new sheriff
Rango 2011 BDRip XviD/Codec_full(for_movie).exe 249.856 KB
Rango 2011 BDRip XviD/README!.txt 122 B
Rango 2011 BDRip XviD/Rango 2011 BDRip XviD.avi 798.437 MB
Gathering some info...

Register and log in Isohunt and see no captcha anymore!

4000 symbols left
Hash e4fdb08ed7eeafca05c3c7a16f313397646ef81f

Related torrents for "Rango 2011 BDRip XviD"

Torrent search:

bd 2011