imdb
rating

7.5
United

United (2011)

Drama, History

Full description
quality   telesync dvdr bd fullhd hd h264

Animals.United.2011.iTALiAN.LD.AC3.5.1.720p.Bluray.XviD.[TrTd_CREW]

Size 1.489 GB   1 seeders     Added 2011-04-29 04:54:47

Stream torrent
Starting‥ You need BitLord! Get it from 1BitLord.com
8.6
To download or stream you need BitLord. Visit them at BitLord.com
General
\nCount : 214
\nCount of stream of this kind : 1
\nKind of stream : General
\nStreamKindID : 0
\nCount of video streams : 1
\nCount of audio streams : 1
\nVideo_Format_List : MPEG-4 Visual
\nVideo_Format_WithHint_List : MPEG-4 Visual (XviD)
\nCodecs Video : XviD
\nAudio_Format_List : AC-3
\nAudio_Format_WithHint_List : AC-3
\nAudio codecs : AC3
\nComplete name : Animals.United.2011.iTALiAN.LD.AC3.5.1.720p.Bluray.XviD.[TrTd_CREW]\\Animals.United.2011.iTALiAN.LD.AC3.5.1.720p.Bluray.XviD.[TrTd_CREW].avi
\nFolder name : Animals.United.2011.iTALiAN.LD.AC3.5.1.720p.Bluray.XviD.[TrTd_CREW]
\nFile name : Animals.United.2011.iTALiAN.LD.AC3.5.1.720p.Bluray.XviD.[TrTd_CREW]
\nFile extension : avi
\nFormat : AVI
\nFormat : AVI
\nFormat/Info : Audio Video Interleave
\nFormat/Extensions : avi
\nInterleaved : Yes
\nCodec : AVI
\nCodec : AVI
\nCodec/Info : Audio Video Interleave
\nCodec/Extensions : avi
\nFile size : 1488982016
\nFile size : 1.39 GiB
\nFile size : 1 GiB
\nFile size : 1.4 GiB
\nFile size : 1.39 GiB
\nFile size : 1.387 GiB
\nDuration : 5586840
\nDuration : 1h 33mn
\nDuration : 1h 33mn 6s 840ms
\nDuration : 1h 33mn
\nDuration : 01:33:06.840
\nOveral bit rate : 2132127
\nOveral bit rate : 2132 Kbps
\nStream size : 6761028 / 6761028
\nStream size : 6.45 MiB
\nStream size : 6 MiB
\nStream size : 6.4 MiB
\nStream size : 6.45 MiB
\nStream size : 6.448 MiB
\nFile creation date : UTC 2011-04-28 20:57:31.294
\nFile last modification date : UTC 2011-04-27 23:14:30.000
\nWriting application : VirtualDubMod 1.5.10.2 (build 2542/release)
\nWriting library : VirtualDubMod build 2542/release
\n
\nVideo
\nCount : 119
\nCount of stream of this kind : 1
\nKind of stream : Video
\nStreamKindID : 0
\nFormat : MPEG-4 Visual
\nFormat profile : Streaming Video@L1
\nFormat settings : BVOP
\nFormat settings, BVOP : Yes
\nFormat settings, QPel : No
\nFormat settings, GMC : 0
\nFormat settings, GMC : 0 warppoint
\nFormat settings, Matrix : Default
\nMuxing mode : Packet Bitstream
\nCodec ID : XVID
\nCodec ID/Hint : XviD
\nCodec ID/Url : http://www.xvid.org/Downloads.15.0.html
\nCodec : XVID
\nCodec : XviD
\nCodec/Family : MPEG-4V
\nCodec/Info : XviD project
\nCodec/Url : http://www.xvid.org/Downloads.15.0.html
\nCodec/CC : XVID
\nCodec profile : Streaming Video@L1
\nCodec settings : BVOP / Packed Bitstream
\nCodec settings, BVOP : Yes
\nCodec settings, QPel : No
\nCodec settings, GMC : 0
\nCodec settings, GMC : 0 warppoint
\nCodec settings, Matrix : Default
\nDuration : 5586840
\nDuration : 1h 33mn
\nDuration : 1h 33mn 6s 840ms
\nDuration : 1h 33mn
\nDuration : 01:33:06.840
\nBit rate : 1802446
\nBit rate : 1802 Kbps
\nWidth : 1280
\nWidth : 1280 pixels
\nHeight : 720
\nHeight : 720 pixels
\nPixel Aspect Ratio : 1.000
\nDisplay aspect ratio : 1.778
\nDisplay aspect ratio : 16/9
\nFrame rate : 25.000
\nFrame rate : 25.000 fps
\nFrameCount : 139671
\nResolution : 8
\nResolution : 8 bits
\nColorimetry : 4:2:0
\nScan type : Progressive
\nScan type : Progressive
\nInterlacement : PPF
\nInterlacement : Progressive
\nBits/(Pixel*Frame) : 0.078
\nStream size : 1258747388
\nStream size : 1.17 GiB
\nStream size : 1 GiB
\nStream size : 1.2 GiB
\nStream size : 1.17 GiB
\nStream size : 1.172 GiB
\nWriting library : XviD0050
\nWriting library : XviD0050
\n
\nAudio
\nCount : 102
\nCount of stream of this kind : 1
\nKind of stream : Audio
\nStreamKindID : 0
\nFormat : AC-3
\nFormat/Info : Audio Coding 3
\nCodec ID : 2000
\nCodec : AC3
\nCodec : AC3
\nCodec/CC : 2000
\nDuration : 5586840
\nDuration : 1h 33mn
\nDuration : 1h 33mn 6s 840ms
\nDuration : 1h 33mn
\nDuration : 01:33:06.840
\nBit rate mode : CBR
\nBit rate : 320000
\nBit rate : 320 Kbps
\nChannel(s) : 6
\nChannel(s) : 6 channels
\nChannel positions : Front: L C R, Rear: L R, LFE
\nSampling rate : 48000
\nSampling rate : 48.0 KHz
\nSamplingCount : 268168320
\nStream size : 223473600
\nStream size : 213 MiB
\nStream size : 213 MiB
\nStream size : 213 MiB
\nStream size : 213 MiB
\nStream size : 213.1 MiB
Animals.United.2011.iTALiAN.LD.AC3.5.1.720p.Bluray.XviD.[TrTd_CREW]/Animals.United.2011.iTALiAN.LD.AC3.5.1.720p.Bluray.XviD.[TrTd_CREW].avi 1.489 GB
Animals.United.2011.iTALiAN.LD.AC3.5.1.720p.Bluray.XviD.[TrTd_CREW]/presentazione.rtf 31.373 KB
Animals.United.2011.iTALiAN.LD.AC3.5.1.720p.Bluray.XviD.[TrTd_CREW]/presentazione.txt 266 B
Gathering some info...

Register and log in Isohunt and see no captcha anymore!

4000 symbols left
Hash 54a3709e5c909c52d7d7ce55587aded3d4c268a0

Related torrents for "Animals.United.2011.iTALiAN.LD.AC3.5.1.720p.Bluray.XviD.[TrTd_CREW]"

Torrent search:

italian hd bd 2011