Five

Five (1997)

Drama

Full description

Fast Five 2011 TS XViD IMAGiNE

Size 883.375 MB   0 seeders     Added 2011-05-01 12:21:22

Stream torrent
Starting‥ You need BitLord! Get it from BitLord.com
To download or stream you need BitLord. Visit them at BitLord.com
[img]image[/img]


Title : Fast Five 2011 TS XViD IMAGiNE
Genre : Action and Adventure
Director : Justin Lin
Cast : Vin Diesel | Paul Walker | Jordana Brewster | Chris “Ludacris” Bridges | Tyrese Gibson | Sung 

Kang | Gal Gadot | Matt Schulze | Tego Calderon | Don Omar | Elsa Pataky | Joaquim De Almeida | 

Dwayne Johnson
Writers : Chris Morgan
Synopsis :
Vin Diesel and Paul Walker lead a reunion of returning all-stars from every chapter of the explosive 

franchise built on speed in Fast Five. In this installment, former cop Brian O'Conner (Paul Walker) 

partners with ex-con Dom Toretto (Vin Diesel) on the opposite side of the law. Dwayne Johnson joins 

returning favorites Jordana Brewster, Chris "Ludacris" Bridges, Tyrese Gibson, Sung Kang, Gal Gadot, 

Matt Schulze, Tego Calderon and Don Omar for this ultimate high-stakes race. ...


Format                           : AVI
Format/Info                      : Audio Video Interleave
Format profile                   : OpenDML
Duration                         : 130 min.
Overall bit rate                 : 1 206 Kbps
Writing application              : VirtualDubMod 1.5.10.2 (build 2542/release)
Writing library                  : VirtualDubMod build 2542/release
Original source form             : MAX TORRENTZ
Copyright                        : SIGISMUNT

Video
ID                               : 0
Format                           : MPEG-4 Visual
Format profile                   : AdvancedSimple@L5
Format settings, BVOP            : Yes
Format settings, QPel            : No
Format settings, GMC             : No warppoints
Format settings, Matrix          : Default (H.263)
Muxing mode                      : Packed bitstream
Codec ID                         : XVID
Codec ID/Hint                    : XviD
Duration                         : 130 min.
Bit rate                         : 1 010 Kbps
Width                            : 640 pixels
Height                           : 272 pixels
Display aspect ratio             : 2.35:1
Frame rate                       : 23.976 fps
Resolution                       : 24 bits
Colorimetry                      : 4:2:0
Scan type                        : Progressive
Bits/(Pixel*Frame)               : 0.242
Stream size                      : 962 MiB (84%)
Writing library                  : XviD 57

Audio
ID                               : 1
Format                           : MPEG Audio
Format version                   : Version 1
Format profile                   : Layer 3
Codec ID                         : 55
Codec ID/Hint                    : MP3
Duration                         : 130 min.
Bit rate mode                    : Constant
Bit rate                         : 192 Kbps
Channel(s)                       : 2 channels
Sampling rate                    : 48.0 KHz
Resolution                       : 16 bits
Stream size                      : 183 MiB (16%)
Alignment                        : Aligned on interleaves
Interleave, duration             : 712 ms (17.08 video frames)
Interleave, preload duration     : 216 ms
Writing library                  : LAME3.98.2
 
Source: DVD (perfect a/v/sync quality+filtered audio with additional 400% volume , sample is included)

Fast Five 2011 TS XViD IMAGiNE Torrent Free Download

SCREENSHOTS :

[img]image[/img]
[img]image[/img]
[img]image[/img]
[img]image[/img]
[img]image[/img]
[img]image[/img]
[img]image[/img]
[img]image[/img]
[img]image[/img]
[img]image[/img]
[img]image[/img]
[img]image[/img]
[img]image[/img]
[img]image[/img]
[img]image[/img]
[img]image[/img]
[img]image[/img]
[img]image[/img]
[img]image[/img]
[img]image[/img]
[img]image[/img]
[img]image[/img]
[img]image[/img]
[img]image[/img]
[img]image[/img]
[img]image[/img]
[img]image[/img]
[img]image[/img]
[img]image[/img]
[img]image[/img]
[img]image[/img]
[img]image[/img]
[img]image[/img]
[img]image[/img]
[img]image[/img]
[img]image[/img]
[img]image[/img]
[img]image[/img]
[img]image[/img]
[img]image[/img]
[img]image[/img]
[img]image[/img]
[img]image[/img]
[img]image[/img]
[img]image[/img]
[img]image[/img]
[img]image[/img]
[img]image[/img]
[img]image[/img]
[img]image[/img]
[img]image[/img]


Torrent Client - Preferences - Bandwidth - Number of connections - Set aprox. 500 for each 
Torrent Client - Preferences - BiTorrent - Protocol Encryption - Forced
Bandwidth Allocation - High (Set download/upload limit - Unlimited)
Stop Other Active Torrents - Start downloading and wait for connections.
Enjoy and Seed for at least 1:1 ratio. Don't forget to say thanks/leave reviews.
Before downloading you should check/google search sample "release name""sample".
Greets to all actual/future p2p/scene QUALITY groups and affiliate websites.
Don't trust IMDb robot or bad ratings,always watch some trailers first.
Please spread this release/torrent to your friends/forums/etc.
If you need translation subs visit some subtitles sites.
Report if you see online streaming or other spam links.
Recommended movie player VLC PLAYER.
Fast Five 2011 TS XViD IMAGiNE/Donate.nfo 4.858 KB
Fast Five 2011 TS XViD IMAGiNE/Fast Five - Official Trailer 2 [HD] [www.keepvid.com].mp4 34.97 MB
Fast Five 2011 TS XViD IMAGiNE/Fast Five 2011 TS XViD IMAGiNE.avi 848.147 MB
Gathering some info...

Register and log in Isohunt and see no captcha anymore!

4000 symbols left
Hash e65f89d920583ca166d5ce5a7c7929d7da0ae094

Related torrents for "Fast Five 2011 TS XViD IMAGiNE"

Torrent search:

telesync 2011