Flatlandia (Michele Emmer, 1982) [DVD5 - Ita Ac3]

Size 1.268 GB   2 seeders     Added 2011-05-09 01:09:56

Stream torrent
Starting‥ You need BitLord! Get it from BitLord.com
10
To download or stream you need BitLord. Visit them at BitLord.com
[align=center]
[URL=http://forum.tntvillage.scambioetico.org/tntforum/index.php?showtopic=197465][IMG]image[/IMG][/URL]

[b][SIZE=12][color=red]Flatlandia[/SIZE][/b][/color]

[IMG]image[/IMG][/align]

[b][color=red].: Plot :.[/color][/b]
A shot animated movie directed by the mathematician Michele Emmer.

The story is about a two-dimensional world referred to as Flatland which is occupied by geometric figures. Women are simple line-segments, while men are regular polygons with various numbers of sides. The narrator is a humble square, a member of the social caste of gentlemen and professionals in a society of geometric figures, who guides us through some of the implications of life in two dimensions. The square has a dream about a visit to a one-dimensional world (Lineland) which is inhabited by "lustrous points." He attempts to convince the realm's ignorant monarch of a second dimension but finds that it is essentially impossible to make him see outside of his eternally straight line. He is then visited by a three-dimensional sphere, which he cannot comprehend until he sees Spaceland for himself. This sphere, who remains nameless, visits Flatland at the turn of each millennium to introduce a new apostle to the idea of a third dimension in the hopes of eventually educating the population of Flatland of the existence of Spaceland. From the safety of Spaceland, they are able to observe the leaders of Flatland secretly acknowledging the existence of the sphere and prescribing the silencing of anyone found preaching the truth of Spaceland and the third dimension. After this proclamation is made, many witnesses are massacred or imprisoned (according to caste).


[b][color=red].: Trama/Recensione :.[/color][/b]
"Flatlandia" è un cortometraggio d'animazione in tecnica mista (prevalentemente in stop motion con la parte finale realizzata al computer in 3D) realizzato nel 1982 dal matematico italiano Michele Emmer.
Si ispira - come si può intuire - al romanzo "FLATLAND: A Romance of Many Dimensions" di Edwin A. Abbott del 1884.
Le immagini sono accompagnate dalla voce di un quadrato che si trova in prigione, ci racconta del suo mondo e del perchè si trova in quella situazione.

[b][color=red].: Info & Cast  :.[/color][/b]
Regia / directed by: Michele Emmer
Sceneggiatura / written by: Edwin A. Abbott (libro / book)
Color,b/w: Color
Anno / year: 1982
Nazione di produzione: Italia
Lingua / language: italiano
sottotitoli / subtitles: NO


[b][color=red].: Screenshot  :.[/color][/b]
[url=http://postimage.org/image/1n8t1klj8/][img]image[/img][/url]
[url=http://postimage.org/image/1n8o2yk1w/][img]image[/img][/url]
[url=http://postimage.org/image/1n8pqhwjo/][img]image[/img][/url]
[url=http://postimage.org/image/1n91b9c04/][img]image[/img][/url]


[b][color=red].: Dati  :.[/color][/b]
General
Complete name                    : /mnt/HDD2/Torrent/Flatlandia/VIDEO_TS/VTS_01_1.VOB
Format                           : MPEG-PS
File size                        : 1 024 MiB
Duration                         : 18mn 9s
Overall bit rate                 : 7 886 Kbps

Video
ID                               : 224 (0xE0)
Format                           : MPEG Video
Format version                   : Version 2
Format profile                   : Main@Main
Format settings, BVOP            : Yes
Format settings, Matrix          : Default
Format settings, GOP             : M=3, N=12
Duration                         : 18mn 9s
Bit rate mode                    : Variable
Bit rate                         : 6 193 Kbps
Nominal bit rate                 : 7 700 Kbps
Width                            : 720 pixels
Height                           : 576 pixels
Display aspect ratio             : 4:3
Frame rate                       : 25.000 fps
Standard                         : PAL
Color space                      : YUV
Chroma subsampling               : 4:2:0
Bit depth                        : 8 bits
Scan type                        : Interlaced
Scan order                       : Bottom Field First
Bits/(Pixel*Frame)               : 0.597
Stream size                      : 804 MiB (79%)

Audio
ID                               : 160 (0xA0)
Format                           : PCM
Format settings, Endianness      : Big
Format settings, Sign            : Signed
Muxing mode                      : DVD-Video
Duration                         : 18mn 8s
Bit rate mode                    : Constant
Bit rate                         : 1 536 Kbps
Channel(s)                       : 2 channels
Channel positions                : Front: L R
Sampling rate                    : 48.0 KHz
Bit depth                        : 16 bits
Stream size                      : 199 MiB (19%)


[b][color=red].: Altro/Link :.[/color][/b]
La pagina del regista: [URL=http://www.mat.uniroma1.it/people/emmer/]http://www.mat.uniroma1.it/people/emmer/[/URL]
imdb: [URL=http://www.imdb.it/title/tt0121289/]http://www.imdb.it/title/tt0121289/[/URL]

[b][color=red].: Ringraziamenti :.[/color][/b]
* chi ha fatto il film
* chi ha fatto il dvd
* postimage per l'hosting delle immagini


[b]Orario di seed e Banda disponibile:[/b] 4/7 - ~24/24  --> 20++ Kbps
Flatlandia/VIDEO_TS/VIDEO_TS.BUP 14.336 KB
Flatlandia/VIDEO_TS/VIDEO_TS.IFO 14.336 KB
Flatlandia/VIDEO_TS/VIDEO_TS.VOB 157.696 KB
Gathering some info...

Register and log in Isohunt and see no captcha anymore!

4000 symbols left
Hash 1a724118cde35fe2e4d676cec5aed6438d07ef47