imdb
rating

8.0
WWE Raw

WWE Raw (1993)

Action & Adventure, Drama

Full description

WWE Raw 05 09 11 x264 400MB

Size 360.424 MB   0 seeders     Added 2011-05-11 07:00:25

Stream torrent
Starting‥ You need BitLord! Get it from BitLord.com
To download or stream you need BitLord. Visit them at BitLord.com
wwe_monday_night_raw.jpg


<div class="bbcode_code">
<div class="bbcode_code_head">Code:</div>
<div class="bbcode_code_body" style="white-space:pre">Duration: 01:33:41.20, start: 0.000000, bitrate: N/A
Stream #0.0: Video: h264, yuv420p, 640x352, PAR 1:1 DAR 20:11, 25 fps, 25 tbr,
1k tbn, 50 tbc
Stream #0.1(eng): Audio: aac, 48000 Hz, stereo, s16
At least one output file must be specified</div>
</div>
WWE.Raw.05.09.11.x264.400MB/Read Me.txt 2.6 KB
WWE.Raw.05.09.11.x264.400MB/WWE.Raw.05.09.11.x264.400MB.mkv 360.421 MB
Gathering some info...

Register and log in Isohunt and see no captcha anymore!

4000 symbols left
Hash 986fc5eb2311cfaba808459102b436314a7e82ce

Related torrents for "WWE Raw 05 09 11 x264 400MB"

Torrent search:

x264