imdb
rating

6.3
Transformers: Dark of the Moon

Transformers: Dark of the Moon (2011)

Action, Adventure, Science Fiction

Full description

Transformer Dark of the Moon.2011 TS x264 Feel-Free

Size 769.602 MB   0 seeders     Added 2011-05-17 14:10:59

Stream torrent
Starting‥ You need BitLord! Get it from BitLord.com
To download or stream you need BitLord. Visit them at BitLord.com
Transformer Dark of the Moon.2011 TS x264 Feel-Free

image

All details are here:

The Autobots learn of a Cybertronian spacecraft hidden on the Moon, and race against the Decepticons to reach it and learn its secrets, which could turn the tide in the Transformers' final battle.
---------------------------------------------------------------------
Action | Adventure | Sci-Fi
Format | AVI Language | ENGLISH
Source | DVD PAL Subs | Nynorks,iTALiAN,French
---------------------------------------------------------------------
- Video
ID : 0
Format : MPEG-4 Visual
Format profile : Advanced Simple@L5
Format settings, BVOP : Yes
Format settings, QPel : No
Format settings, GMC : No warppoints
Format settings, Matrix : Default (H.263)
Muxing mode : Packed bitstream
Codec ID : XVID
Codec ID/Hint : XviD
Bit rate : 1 345 Kbps
Width : 720 pixels
Height : 314 pixels
Display aspect ratio : 2.25:1
Frame rate : 29.970 fps
Color space : YUV
Chroma subsampling : 4:2:0
Bit depth : 8 bits
Scan type : Progressive
Compression mode : Lossy
Bits/(Pixel*Frame) : 0.198
Stream size : 1.19 GiB (87%)
Writing library : XviD 1.1.0 (UTC 2005-11-22)
- Audio
ID : 1
Format : AC-3
Format/Info : Audio Coding 3
Mode extension : CM (complete main)
Codec ID : 2000
Bit rate mode : Constant
Bit rate : 192 Kbps
Channel(s) : 2 channels
Channel positions : Front: L R
Sampling rate : 48.0 KHz
Bit depth : 16 bits
Compression mode : Lossy
Stream size : 175 MiB (12%)
Alignment : Aligned on interleaves
Interleave, duration : 33 ms (1.00 video frame)
Interleave, preload duration : 512 ms

- Greets
Greets to | MAX | IMAGiNE | PrisM | DiGiTAL iNK |
-------------------------------------------------------------------
Please share....Dont hit and run...Seed it back at least once.
Of course, if you want to seed it back more than once, that would be ok too
-------------------------------------------------------------------
- Notes
Im looking for anybody who Wants to Supply
Direct or Line Audio. Pre Released R5s,
Screeners, NTSC or PAL Pre Retail DVDs
or Anything else Usefull;
Bit of blurry but its good worth downloading

enjoy

Screens:
image

--------------------------------------------------------------------
Transformer Dark of the Moon.2011 TS x264 Feel-Free/Transformer Dark of the Moon.2011 TS x264 Feel-Free.avi 769.602 MB
Gathering some info...

Register and log in Isohunt and see no captcha anymore!

4000 symbols left
Hash 46513091357ad487ec11453bbfdc59dcd30ab154

Related torrents for "Transformer Dark of the Moon.2011 TS x264 Feel-Free"

Torrent search:

telesync x264 2011