imdb
rating

5.7
Priest

Priest (2011)

Action, Horror, Science Fiction, Thriller

Full description

Priest.2011 TS x264 Feel-Free

Size 769.602 MB   0 seeders     Added 2011-05-17 15:29:19

Stream torrent
Starting‥ You need BitLord! Get it from BitLord.com
To download or stream you need BitLord. Visit them at BitLord.com
[img]image[/img]
[code]
Priest.2011 TS x264 Feel-Free

********************************************************************************************************************



Ripper ...........:IMAGiNE IMDB Rating.......:6.9/10

Video Codec.......:XVID Release Date......:13/05/11

Audio Codec.......:MP3 Theatre Date......:26/04/11

Audio Bitrate.....:128 Runtime...........:1h 35mn

Subtitles.........:SET Language..........:ENGLISH:iTALian:Norks:French

Resolution........:720 x 304 IMDb URL.......... http://www.imdb.com/title/tt1092026/





DETAILS:



Video

ID : 0

Format : MPEG-4 Visual

Format profile : Advanced Simple@L5

Format settings, BVOP : Yes

Format settings, QPel : No

Format settings, GMC : No warppoints

Format settings, Matrix : Default (MPEG)

Muxing mode : Packed bitstream

Codec ID : XVID

Codec ID/Hint : XviD

Duration : 1h 35mn

Bit rate : 2 929 Kbps

Width : 720 pixels

Height : 304 pixels

Display aspect ratio : 2.35

Frame rate : 25.000 fps

Resolution : 24 bits

Colorimetry : 4:2:0

Scan type : Progressive

Bits/(Pixel*Frame) : 0.535

Stream size : 1.95 GiB (95%)

Writing library : XviD 61



Audio

ID : 1

Format : MPEG Audio

Format version : Version 1

Format profile : Layer 3

Codec ID : 55

Codec ID/Hint : MP3

Duration : 1h 35mn

Bit rate mode : Constant

Bit rate : 128 Kbps

Channel(s) : 2 channels

Sampling rate : 44.1 KHz

Resolution : 16 bits

Stream size : 87.3 MiB (4%)

Alignment : Split accross interleaves

Interleave, duration : 40 ms (1.00 video frame)

Interleave, preload duration : 500 ms





SOURCES:



VIDEO: TaRiQ786 720p files...Thanks

AUDIO: TaRiQ786 720p files...Thanks



NOTES:



Well here we go with our Priest 2011 .....after sitting back and watching the release,i thought shame about the

camera movements so we've opted to go the extra distance with this one

What we've done is took the 720p source files and cut them up into 7-8 files,where there is camera movement...

ranging from 2 secs to 20 secs and then we cropped and resized them all to match.

By doing this you get max video footage possible,but AR can go a little off but not by much at all.



Also by doing this now you can read all the subbed parts and not just the top of them...check sample

And finally we've filtered slightly different on this release compared to others.



Anyway enjoy folks ....
[/code]
Screens:
[img]image[/img]
[img]image[/img]
[img]image[/img]
[img]image[/img]
[img]image[/img]
[img]image[/img] 
Priest.2011 TS x264 Feel-Free/Priest.2011 TS x264 Feel-Free.avi 769.602 MB
Gathering some info...

Register and log in Isohunt and see no captcha anymore!

4000 symbols left
Hash f3edeaa04bff3504a348021608251b7d0a61181f

Related torrents for "Priest.2011 TS x264 Feel-Free"

Torrent search:

telesync x264 2011