imdb
rating

6.7
Pirates of the Caribbean: On Stranger Tides

Pirates of the Caribbean: On Stranger Tides (2011)

Action, Adventure, Fantasy

Full description

Pirates of the Caribbean On Stranger Tides 2011 BRRip XviD AC3-ELiTE

Size 925.884 MB   0 seeders     Added 2011-05-19 23:58:35

Stream torrent
Starting‥ You need BitLord! Get it from BitLord.com
To download or stream you need BitLord. Visit them at BitLord.com
Genre: Action | Adventure | Fantasy 

Language: English
 
http://www.imdb.com/title/tt1298650/

Source: CiNEDUB/IMAGINEThanks!

Format : AVI
Format/Info : Audio Video Interleave
File size : 882 MiB
Duration : 1h 46mn
Overall bit rate : 1 040 Kbps

Video
ID : 0
Format : MPEG-4 Visual
Format profile : Advanced Simple@L5
Format settings, BVOP : Yes
Format settings, QPel : No
Format settings, GMC : No warppoints
Format settings, Matrix : Default (H.263)
Muxing mode : Packed bitstream
Codec ID : XVID
Codec ID/Hint : XviD
Duration : 1h 33mn
Bit rate : 903 Kbps
Width : 688 pixels
Height : 288 pixels
Display aspect ratio : 2.35:1
Frame rate : 25.000 fps
Color space : YUV
Chroma subsampling : 4:2:0
Bit depth : 8 bits
Scan type : Progressive
Bits/(Pixel*Frame) : 0.182
Stream size : 672 MiB (87%)
Writing library : XviD 1.2.1 (UTC 2008-12-04)

Audio
ID : 1
Format : MPEG Audio
Format version : Version 1
Format profile : Layer 3
Mode : Joint stereo
Mode extension : MS Stereo
Codec ID : 55
Codec ID/Hint : MP3
Duration : 1h 33mn
Bit rate mode : Constant
Bit rate : 128 Kbps
Channel(s) : 2 channels
Sampling rate : 44.1 KHz
Video delay : 4ms
Stream size : 95.2 MiB (12%)
Alignment : Split accross interleaves
Interleave, duration : 40 ms (1.00 video frame)
Interleave, preload duration : 500 ms


Plot:
Jack Sparrow and Barbossa embark on a quest to find the elusive fountain of youth, only to 

discover that Blackbeard and his daughter are after it too.



Have fun guys!	
Pirates of the Caribbean On Stranger Tides 2011 BRRip XviD AC3-ELiTE/Donate.nfo 4.858 KB
Pirates of the Caribbean On Stranger Tides 2011 BRRip XviD AC3-ELiTE/Pirates of the Caribbean On Stranger Tides 2011 BRRip XviD AC3-ELiTE.avi 925.742 MB
Pirates of the Caribbean On Stranger Tides 2011 BRRip XviD AC3-ELiTE/READ this before playing the Movie.txt 509 B
Gathering some info...

Register and log in Isohunt and see no captcha anymore!

4000 symbols left
Hash 99b7c513ffcbfc289a6c1e2ae6becce3559e14da

Related torrents for "Pirates of the Caribbean On Stranger Tides 2011 BRRip XviD AC3-ELiTE"

Torrent search:

bd 2011