imdb
rating

7.3
Fast Five

Fast Five (2011)

Action, Crime, Thriller

Full description

Fast & Furious 5 2011 Fast Five TS x264 AAC

Size 1.401 GB   0 seeders     Added 2011-05-21 04:56:03

Stream torrent
Starting‥ You need BitLord! Get it from BitLord.com
10
To download or stream you need BitLord. Visit them at BitLord.com
[img]image[/img]

Genre:Action | Crime | Drama
Language:English
IMDb:<http: />
Source:Thanks!


Format : MPEG-4
Format profile : Base Media
Codec ID : isom
File size : 1.30 GiB
Duration : 1h 58mn
Overall bit rate : 1 571 Kbps


Video
Format profile : High@L4.1
Format settings, CABAC : Yes
Format settings, ReFrames : 3 frames
Codec ID : avc1
Codec ID/Info : Advanced Video Coding
Duration : 1h 58mn
Bit rate mode : Variable
Bit rate : 1 340 Kbps
Maximum bit rate : 5 545 Kbps
Width : 640 pixels
Height : 392 pixels
Display aspect ratio : 1.633
Frame rate mode : Constant
Frame rate : 23.976 fps
Color space : YUV
Chroma subsampling : 4:2:0
Bit depth : 8 bits
Scan type : Progressive
Bits/(Pixel*Frame) : 0.223
Stream size : 1.11 GiB (86%)
Writing library : x264 


Audio
ID : 2
Format : AAC
Format/Info : Advanced Audio Codec
Format version : Version 4
Format profile : LC
Format settings, SBR : No
Codec ID : 40
Duration : 1h 58mn
Bit rate mode : Variable
Bit rate : 224 Kbps
Maximum bit rate : 312 Kbps
Channel(s) : 2 channels
Channel positions : Front: L R
Sampling rate : 44.1 KHz
Stream size : 190 MiB (14%)



Plot:
Dominic and his crew find themselves on the wrong side of the law once again as they try to switch lanes between a ruthless drug lord and a relentless federal agent.

TRAILER:
[embed=youtube]http://www.youtube.com/watch?v=4PspF_GA-9U&feature=player_embedded[/embed]



[img]image[/img]
[img]image[/img]
[img]image[/img]
[img]image[/img]
[img]image[/img]
[img]image[/img]
Fast & Furious 5 2011 Fast Five TS x264 AAC/Fast & Furious 5 2011 Fast Five TS x264 AAC.mp4 1.399 GB
Fast & Furious 5 2011 Fast Five TS x264 AAC/vlcsnap-00007.png 430.578 KB
Fast & Furious 5 2011 Fast Five TS x264 AAC/vlcsnap-00002.png 423.518 KB
Gathering some info...

Register and log in Isohunt and see no captcha anymore!

4000 symbols left
Hash 1fd062c99a969a30a3677a4ee3e77db76a727078

Related torrents for "Fast & Furious 5 2011 Fast Five TS x264 AAC"

Torrent search:

telesync x264 2011