Appleseed Movie dvdrip (whitecloudsta)

Size 1.463 GB   0 seeders     Added 2011-05-22 01:39:27

Stream torrent
Starting‥ You need BitLord! Get it from BitLord.com
To download or stream you need BitLord. Visit them at BitLord.com
General
\APPLESEED.avi
Format                           : AVI
Format/Info                      : Audio Video Interleave
Format profile                   : OpenDML
File size                        : 1.36 GiB
Duration                         : 1h 19mn
Overall bit rate                 : 2 468 Kbps
Movie name                       : APPLESEED_DISC_1.Title4.Angle1.DVDRip
Writing application              : Lavf52.78.4
Original source form/Name        : APPLESEED_DISC_1

Video
ID                               : 0
Format                           : MPEG-4 Visual
Format profile                   : Advanced Simple@L5
Format settings, BVOP            : 2
Format settings, QPel            : No
Format settings, GMC             : No warppoints
Format settings, Matrix          : Default (H.263)
Muxing mode                      : Packed bitstream
Codec ID                         : DX50
Codec ID/Hint                    : DivX 5
Duration                         : 1h 19mn
Bit rate                         : 1 359 Kbps
Width                            : 640 pixels
Height                           : 360 pixels
Display aspect ratio             : 16:9
Frame rate                       : 23.976 fps
Color space                      : YUV
Chroma subsampling               : 4:2:0
Bit depth                        : 8 bits
Scan type                        : Progressive
Compression mode                 : Lossy
Bits/(Pixel*Frame)               : 0.246
Stream size                      : 769 MiB (55%)
Writing library                  : XviD 1.2.1 (UTC 2008-12-04)

Audio                            : English
ID                               : 1
Format                           : AC-3
Format/Info                      : Audio Coding 3
Mode extension                   : CM (complete main)
Codec ID                         : 2000
Duration                         : 1h 19mn
Bit rate mode                    : Constant
Bit rate                         : 448 Kbps
Channel(s)                       : 6 channels
Channel positions                : Front: L C R, Side: L R, LFE
Sampling rate                    : 48.0 KHz
Bit depth                        : 16 bits
Compression mode                 : Lossy
Stream size                      : 253 MiB (18%)
Alignment                        : Aligned on interleaves
Interleave, duration             : 32 ms (0.77 video frame)
Interleave, preload duration     : 32 ms

A.D. 2131, the non nuclear world war which had destroyed the world almost completely ended. Deunan Nuts was wandering in a ruined city. She had survived from the war as a soldier. 
There appeared a large helicopter suddenly, and it shot her. Two persons got off from the helicopter. They were Deunan's ex-lover, Briareos, and Hitomi. Hitomi didn't look like a woman who stood in the battle field. They carried Dunan, who lost her conscience by an anesthesia bullet, into the Peace City, "Olympus".
After all, no country won the war, and Olympus governed the world in the aftermath of the war. When Deunan came to and she turned to the familiar voice, she found her ex-lover, Briareos. Briareos had changed completely and he had made his body cyborg. She was too astonished to say anything. When they were alone in the guestroom, he confessed that he had lost his body in the battle field of the North Africa, and made his body cyborg.
The next day, she was permitted to live in the city, and Hitomi took her to the Legislative Organization by her car. Deunan was embarrassed to see the peaceful scene in the city because it wasn't long before she had been in the battle field, but at the same time, she felt comfortable when she saw the people in Olympus living peacefully. However, she became uneasy when Hitomi said that 50% of the citizens were the clones of specially chosen human species, "Bioroid". The Bioroid was born to make the society stable, and Hitomi said she herself was Bioroid.
The old men called "Seven Wisest Men" were waiting for them. They said that "Olympus" was controlled by their conversation with a large computer called "Gaia". However, it was the Bioroid that actually managed the politics, and the plot to endanger the existence of the human beings was working. On the other hand, Briareos didn't look happy for their reunion, and he didn't want to talk to her anything. It made Dunan irritate.

Has Briareos really changed? Whether is the Bioroid an enemy or an ally? Is Olympus a true utopia?
Appleseed/APPLESEED.avi 1.463 GB
Appleseed/APPLESEED.avi.MediaInfo.txt 4.91 KB
Gathering some info...

Register and log in Isohunt and see no captcha anymore!

4000 symbols left
Hash fc321de91afeb7fe9bf45284e18c8cf2d49a3caf