imdb
rating

6.8
The Company Men

The Company Men (2010)

Drama

Full description
quality   h264 screener dvdrip dvd hd bd x264

The.Company.Men.2010.iTALIAN.AC3.5.1.720p.BDRip.XviD-TrTd_CREW

Size 1.775 GB   10 seeders     Added 2011-05-23 03:19:03

Stream torrent
Starting‥ You need BitLord! Get it from 1BitLord.com
10
To download or stream you need BitLord. Visit them at BitLord.com
General
\nCount : 259
\nCount of stream of this kind : 1
\nKind of stream : General
\nKind of stream : General
\nStream identifier : 0
\nCount of video streams : 1
\nCount of audio streams : 1
\nVideo_Format_List : MPEG-4 Visual
\nVideo_Format_WithHint_List : MPEG-4 Visual (XviD)
\nCodecs Video : XviD
\nAudio_Format_List : AC-3
\nAudio_Format_WithHint_List : AC-3
\nAudio codecs : AC3
\nComplete name : The.Company.Men.2010.iTALIAN.AC3.5.1.720p.BDRip.XviD-TrTd_CREW\\The.Company.Men.2010.iTALIAN.AC3.5.1.720p.BDRip.XviD-TrTd_CREW.avi
\nFolder name : The.Company.Men.2010.iTALIAN.AC3.5.1.720p.BDRip.XviD-TrTd_CREW
\nFile name : The.Company.Men.2010.iTALIAN.AC3.5.1.720p.BDRip.XviD-TrTd_CREW
\nFile extension : avi
\nFormat : AVI
\nFormat : AVI
\nFormat/Info : Audio Video Interleave
\nFormat/Extensions usually used : avi
\nInterleaved : Yes
\nCodec : AVI
\nCodec : AVI
\nCodec/Info : Audio Video Interleave
\nCodec/Extensions usually used : avi
\nFile size : 1775216640
\nFile size : 1.65 GiB
\nFile size : 2 GiB
\nFile size : 1.7 GiB
\nFile size : 1.65 GiB
\nFile size : 1.653 GiB
\nDuration : 6019280
\nDuration : 1h 40mn
\nDuration : 1h 40mn 19s 280ms
\nDuration : 1h 40mn
\nDuration : 01:40:19.280
\nOverall bit rate : 2359374
\nOverall bit rate : 2 359 Kbps
\nStream size : 7282837
\nStream size : 6.95 MiB (0%)
\nStream size : 7 MiB
\nStream size : 6.9 MiB
\nStream size : 6.95 MiB
\nStream size : 6.945 MiB
\nStream size : 6.95 MiB (0%)
\nProportion of this stream : 0.00410
\nFile creation date : UTC 2011-05-22 17:55:28.519
\nFile creation date (local) : 2011-05-22 19:55:28.519
\nFile last modification date : UTC 2011-05-22 17:01:42.000
\nFile last modification date (loc : 2011-05-22 19:01:42.000
\nWriting application : VirtualDubMod 1.5.10.2 (build 2542/release)
\nWriting library : VirtualDubMod build 2542/release
\nWriting library : VirtualDubMod build 2542/release
\n
\nVideo
\nCount : 148
\nCount of stream of this kind : 1
\nKind of stream : Video
\nKind of stream : Video
\nStream identifier : 0
\nID : 0
\nID : 0
\nFormat : MPEG-4 Visual
\nFormat profile : AdvancedSimple@L5
\nFormat settings : BVOP
\nFormat settings, BVOP : Yes
\nFormat settings, BVOP : Yes
\nFormat settings, QPel : No
\nFormat settings, QPel : No
\nFormat settings, GMC : 0
\nFormat settings, GMC : No warppoints
\nFormat settings, Matrix : Default (H.263)
\nFormat settings, Matrix : Default (H.263)
\nMuxing mode : Packed bitstream
\nCodec ID : XVID
\nCodec ID/Hint : XviD
\nCodec ID/Url : http://mediaarea.net/XVID
\nCodec : XVID
\nCodec : XviD
\nCodec/Family : MPEG-4V
\nCodec/Info : XviD project
\nCodec/Url : http://www.xvid.org/Downloads.15.0.html
\nCodec/CC : XVID
\nCodec profile : AdvancedSimple@L5
\nCodec settings : BVOP / Packed Bitstream
\nCodec settings, Packet bitstream : Yes
\nCodec settings, BVOP : Yes
\nCodec settings, QPel : No
\nCodec settings, GMC : 0
\nCodec settings, GMC : No warppoints
\nCodec settings, Matrix : Default (H.263)
\nDuration : 6019280
\nDuration : 1h 40mn
\nDuration : 1h 40mn 19s 280ms
\nDuration : 1h 40mn
\nDuration : 01:40:19.280
\nBit rate : 1901695
\nBit rate : 1 902 Kbps
\nWidth : 1280
\nWidth : 1 280 pixels
\nHeight : 720
\nHeight : 720 pixels
\nPixel aspect ratio : 1.000
\nDisplay aspect ratio : 1.778
\nDisplay aspect ratio : 16:9
\nFrame rate : 25.000
\nFrame rate : 25.000 fps
\nFrame count : 150482
\nResolution : 24
\nResolution : 24 bits
\nColorimetry : 4:2:0
\nScan type : Progressive
\nScan type : Progressive
\nInterlacement : PPF
\nInterlacement : Progressive
\nBits/(Pixel*Frame) : 0.083
\nDelay : 0
\nStream size : 1430854123
\nStream size : 1.33 GiB (81%)
\nStream size : 1 GiB
\nStream size : 1.3 GiB
\nStream size : 1.33 GiB
\nStream size : 1.333 GiB
\nStream size : 1.33 GiB (81%)
\nProportion of this stream : 0.80602
\nWriting library : XviD0050
\nWriting library : XviD 1.2.1 (UTC 2008-12-04)
\nWriting library/Name : XviD
\nWriting library/Version : 1.2.1
\nWriting library/Date : UTC 2008-12-04
\n
\nAudio
\nCount : 129
\nCount of stream of this kind : 1
\nKind of stream : Audio
\nKind of stream : Audio
\nStream identifier : 0
\nID : 1
\nID : 1
\nFormat : AC-3
\nFormat/Info : Audio Coding 3
\nCodec ID : 2000
\nCodec : AC3
\nCodec : AC3
\nCodec/Family : AC3
\nCodec/Info : Dolby AC3
\nCodec/CC : 2000
\nDuration : 6019280
\nDuration : 1h 40mn
\nDuration : 1h 40mn 19s 280ms
\nDuration : 1h 40mn
\nDuration : 01:40:19.280
\nBit rate mode : CBR
\nBit rate mode : Constant
\nBit rate : 448000
\nBit rate : 448 Kbps
\nChannel(s) : 6
\nChannel(s) : 6 channels
\nChannel positions : Front: L C R, Surround: L R, LFE
\nChannel positions : 3/2.1
\nSampling rate : 48000
\nSampling rate : 48.0 KHz
\nSamplingCount : 288925440
\nDelay : 25
\nDelay : 25ms
\nDelay : 25ms
\nDelay : 25ms
\nDelay : 00:00:00.025
\nVideo delay : 25
\nVideo delay : 25ms
\nVideo delay : 25ms
\nVideo delay : 25ms
\nVideo delay : 00:00:00.025
\nVideo0 delay : 25
\nVideo0 delay : 25ms
\nVideo0 delay : 25ms
\nVideo0 delay : 25ms
\nVideo0 delay : 00:00:00.025
\nStream size : 337079680
\nStream size : 321 MiB (19%)
\nStream size : 321 MiB
\nStream size : 321 MiB
\nStream size : 321 MiB
\nStream size : 321.5 MiB
\nStream size : 321 MiB (19%)
\nProportion of this stream : 0.18988
\nAlignment : Split
\nAlignment : Split accross interleaves
\nInterleave, duration : 1.00
\nInterleave, duration : 40
\nInterleave, duration : 40 ms (1.00 video frame)
\nInterleave, preload duration : 512
\nInterleave, preload duration : 512 ms
The.Company.Men.2010.iTALIAN.AC3.5.1.720p.BDRip.XviD-TrTd_CREW/presentazione.rtf 31.373 KB
The.Company.Men.2010.iTALIAN.AC3.5.1.720p.BDRip.XviD-TrTd_CREW/presentazione.txt 266 B
The.Company.Men.2010.iTALIAN.AC3.5.1.720p.BDRip.XviD-TrTd_CREW/The.Company.Men.2010.iTALIAN.AC3.5.1.720p.BDRip.XviD-TrTd_CREW.avi 1.775 GB
Gathering some info...

Register and log in Isohunt and see no captcha anymore!

4000 symbols left
Hash 6f856cbdb0f302cfd4a542624861da0aa3331fe7

Related torrents for "The.Company.Men.2010.iTALIAN.AC3.5.1.720p.BDRip.XviD-TrTd_CREW"

Torrent search:

italian hd 2010 bd