imdb
rating

6.7
Pirates of the Caribbean: On Stranger Tides

Pirates of the Caribbean: On Stranger Tides (2011)

Action, Adventure, Fantasy

Full description

Pirates.of.the.Caribbean.4.(Action).(2011)(English).DvDrip

Size 772.051 MB   0 seeders     Added 2011-05-23 15:06:18

Stream torrent
Starting‥ You need BitLord! Get it from 1BitLord.com
4.2
To download or stream you need BitLord. Visit them at BitLord.com
Pirates.of.the.Caribbean.4.(Action).(2011)(English).DvDrip

XViD - DellnuB Ripper ...........: IMAGiNE IMDB Rating.......: 7.7/10 Video Codec.......: XVID Release Date......: 20/05/11 Audio Codec.......: MP3 Theatre Date......: 20/05/11 Audio Bitrate.....: 128 Runtime.......: 2h 07mn Subtitles.........: NIL Language..........: ENGLISH Resolution......: 720 x 288 IMDb URL..........: http://www.imdb.com/title/tt1298650/ DETAILS: Video ID : 0 Format : MPEG-4 Visual Format profile : Advanced Simple@L5 Format settings, BVOP : 2 Format settings, QPel : No Format settings, GMC : No warppoints Format settings, Matrix : Default (MPEG) Muxing mode : Packed bitstream Codec ID : XVID Codec ID/Hint : XviD Duration : 2h 7mn Bit rate : 1 402 Kbps Width : 720 pixels Height : 288 pixels Display aspect ratio : 2.500 Frame rate : 25.000 fps Color space : YUV Chroma subsampling : 4:2:0 Bit depth : 8 bits Scan type : Progressive Compression mode : Lossy Bits/(Pixel*Frame) : 0.270 Stream size : 1.25 GiB (91%) Writing library : XviD 61 Audio ID : 1 Format : MPEG Audio Format version : Version 1 Format profile : Layer 3 Mode : Joint stereo Mode extension : MS Stereo Codec ID : 55 Codec ID/Hint : MP3 Duration : 2h 7mn Bit rate mode : Constant Bit rate : 128 Kbps Channel(s) : 2 channels Sampling rate : 44.1 KHz Compression mode : Lossy Stream size : 117 MiB (8%) Alignment : Split accross interleaves Interleave, duration : 40 ms (1.00 video frame) Writing library : LAME3.98r Plot: Jack Sparrow and Barbossa embark on a quest to find the elusive fountain of youth, only to discover that Blackbeard and his daughter are after it too. SOURCES: VIDEO: ............ KiNOPARK Thanx Mate AUDIO: ............ 69.1 super line audio Thanx Matey NOTES: IMAGiNE bringing you another release.......... Pirates of the Caribbean On Stranger Tides TS...... Right here we are with a nice TS Video was good, thanx to KiNOPARK for source files We made a script to crop resize and so on..... After adjusting the colors we brightened it up a bit as its a very dark film Audio is very nice 69.1 super LiNE, synced and remuxed to our encode Enjoy Folks!

image
Pirates.of.the.Caribbean.4.(Action).(2011)(English).DvDrip/Pirates of the Caribbean On Stranger Tides 000014.jpg 42.945 KB
Pirates.of.the.Caribbean.4.(Action).(2011)(English).DvDrip/Pirates of the Caribbean On Stranger Tides 000015.jpg 50.585 KB
Pirates.of.the.Caribbean.4.(Action).(2011)(English).DvDrip/Pirates of the Caribbean On Stranger Tides 000016.jpg 45.656 KB
Gathering some info...

Register and log in Isohunt and see no captcha anymore!

4000 symbols left
Hash e42dffb3a6feae851c1c8233f96b1f8c11c982e1

Related torrents for "Pirates.of.the.Caribbean.4.(Action).(2011)(English).DvDrip"

Torrent search:

dvdrip english 2011