imdb
rating

6.7
Pirates of the Caribbean: On Stranger Tides

Pirates of the Caribbean: On Stranger Tides (2011)

Action, Adventure, Fantasy

Full description

Pirates of the Caribbean On Stranger Tides 2011 DVDrip XviD-IRW

Size 711.996 MB   0 seeders     Added 2011-05-26 18:31:03

Stream torrent
Starting‥ You need BitLord! Get it from 1BitLord.com
To download or stream you need BitLord. Visit them at BitLord.com
image

Thx Hive

CM8 Doing It Right The First Time

!THIS VERSION IS IN SYNC!

Sources:
Video: Russian
Piraty.Karibskogo.morya.4.2011.D.TS.avi
thx
Audio: Imagines Line thx


Encode:
Well the russian video was very good in scenes with daylight, but very very dark and lifeless in colouring in dark scenes.
There is no way to do the whole movie with one setting for brightness without killing the daylight scenes.
So once again i had to cut the movie in parts and treat every part differently as needed.
That was a lot of work, believe me.
I corrected the wrong aspect, added a lot contrast and colouring for all dark parts, as you can see on the following screenshotcomparisons
I left the already good scenes at daylight nearly untouched


http://screenshotcomparison.com/comparison/53404

http://screenshotcomparison.com/comparison/53390


Imagines Line didnt fit to the russian video right away, had around 20 oose spots to fix to get everything nearly lipsync.
looks good now
prolly best version to get till new videosource arrives

btw: there is also a proper russian version out by now,which is worse than the first.

did i already mention that there are  no oose spots?

Video: 720x272 @bitrate 1500 2pass

Audio: English AC3 2.0 Stereo

Sample: yes 3 included
      daylight sample
      dark sample
      very dark sample


http://www.imdb.com/title/tt1298650/


General
Complete name                    : Pirates.of.the.Caribbean.On.s.T.2011.TS.XViD.AC3.HQ.Hive-CM8.avi
Format                           : AVI
Format/Info                      : Audio Video Interleave
File size                        : 1.56 GiB
Duration                         : 2h 7mn
Overall bit rate                 : 1 750 Kbps
Writing application              : Nandub v1.0rc2
Writing library                  : Nandub build 1853/release

Video
ID                               : 0
Format                           : MPEG-4 Visual
Format profile                   : Advanced Simple@L5
Format settings, BVOP            : 2
Format settings, QPel            : Yes
Format settings, GMC             : No warppoints
Format settings, Matrix          : Default (H.263)
Muxing mode                      : Packed bitstream
Codec ID                         : XVID
Codec ID/Hint                    : XviD
Duration                         : 2h 7mn
Bit rate                         : 1 484 Kbps
Width                            : 720 pixels
Height                           : 272 pixels
Display aspect ratio             : 2.647
Frame rate                       : 23.976 fps
Color space                      : YUV
Chroma subsampling               : 4:2:0
Bit depth                        : 8 bits
Scan type                        : Progressive
Compression mode                 : Lossy
Bits/(Pixel*Frame)               : 0.316
Stream size                      : 1.32 GiB (85%)
Writing library                  : XviD 1.2.1 (UTC 2008-12-04)

Audio
ID                               : 1
Format                           : AC-3
Format/Info                      : Audio Coding 3
Mode extension                   : CM (complete main)
Codec ID                         : 2000
Duration                         : 2h 7mn
Bit rate mode                    : Constant
Bit rate                         : 256 Kbps
Channel(s)                       : 2 channels
Channel positions                : Front: L R
Sampling rate                    : 48.0 KHz
Bit depth                        : 16 bits
Compression mode                 : Lossy
Stream size                      : 233 MiB (15%)
Alignment                        : Split accross interleaves
Interleave, duration             : 42 ms (1.00 video frame)
Interleave, preload duration     : 500 ms



Johnny Depp ... Jack Sparrow
Penelope Cruz ... Angelica
Geoffrey Rush ... Barbossa
Ian McShane ... Blackbeard
Kevin McNally ... Gibbs

image
Pirates of the Caribbean On Stranger Tides 2011 DVDrip XviD-IRW/Pirates of the Caribbean On Stranger Tides 2011 DVDrip XviD-IRW.wmv 711.996 MB
Pirates of the Caribbean On Stranger Tides 2011 DVDrip XviD-IRW/CODEC READ.txt 103 B
Gathering some info...

Register and log in Isohunt and see no captcha anymore!

4000 symbols left
Hash 0dfdb70c372881f39680d92da6c28bd2bccb6cfa

Related torrents for "Pirates of the Caribbean On Stranger Tides 2011 DVDrip XviD-IRW"

Torrent search:

dvdrip 2011