imdb
rating

7.2
Rango

Rango (2011)

Adventure, Animation, Comedy, Western, Family

Full description

Rango (2011) DVDSCR XviD-MAXSPEED

Size 1.475 GB   0 seeders     Added 2011-05-28 06:19:06

Stream torrent
Starting‥ You need BitLord! Get it from 1BitLord.com
To download or stream you need BitLord. Visit them at BitLord.com
[img]image[/img]


Movie Info: <http: />


Rango (2011) DVDSCR XviD-MAXSPEED
Movie Information:..:
Original Movie Site:: http://www.rangomovie.com/
IMDB::::::::::::::::: http://www.imdb.com/title/tt1192628/
Genre:::::::::::::::: Animation | Adventure | Comedy
Plot::::::::::::::::: Rango is an ordinary chameleon who accidentally winds up in the town of Dirt, a lawless outpost in the Wild West in desperate need of a new sheriff.



Video Stats....:

Format                           : AVI
Format/Info                      : Audio Video Interleave
Format profile                   : OpenDML
File size                        : 1.37 GiB
Duration                         : 1h 47mn
Overall bit rate                 : 1 823 Kbps
Writing application              : VirtualDubMod 1.5.10.2 (build 2542/release)
Writing library                  : VirtualDubMod build 2542/release
Original source form             : MAX TORRENTZ
Copyright                        : SIGISMUNT

Video
ID                               : 0
Format                           : MPEG-4 Visual
Format profile                   : AdvancedSimple@L5
Format settings, BVOP            : Yes
Format settings, QPel            : No
Format settings, GMC             : No warppoints
Format settings, Matrix          : Custom
Codec ID                         : XVID
Codec ID/Hint                    : XviD
Duration                         : 1h 47mn
Bit rate                         : 1 625 Kbps
Width                            : 720 pixels
Height                           : 304 pixels
Display aspect ratio             : 2.35:1
Frame rate                       : 23.976 fps
Resolution                       : 24 bits
Colorimetry                      : 4:2:0
Scan type                        : Progressive
Bits/(Pixel*Frame)               : 0.310
Stream size                      : 1.22 GiB (89%)
Writing library                  : XviD 58

Audio
ID                               : 1
Format                           : AC-3
Format/Info                      : Audio Coding 3
Codec ID                         : 2000
Duration                         : 1h 47mn
Bit rate mode                    : Constant
Bit rate                         : 192 Kbps
Channel(s)                       : 2 channels
Channel positions                : L R
Sampling rate                    : 48.0 KHz
Stream size                      : 147 MiB (11%)
Alignment                        : Aligned on interleaves
Interleave, duration             : 64 ms (1.53 video frames)
Interleave, preload duration     : 192 ms


Plot:
Rango is an ordinary chameleon who accidentally winds up in the town of Dirt, a lawless outpost in the Wild West in desperate need of a new sheriff.


+------+
|Greetz|
+------+
WBZ,VISION,CM8,RX,IMAGINE,KINGSTON100,ALBERT,NWRG to all p2p and scene past and present :D
Rango (2011) DVDSCR XviD-MAXSPEED/help.nfo 1.344 KB
Rango (2011) DVDSCR XviD-MAXSPEED/Rango (2011) DVDSCR XviD-MAXSPEED.avi 1.466 GB
Rango (2011) DVDSCR XviD-MAXSPEED/sample.avi 8.458 MB
Gathering some info...

Register and log in Isohunt and see no captcha anymore!

4000 symbols left
Hash cf7c12f0d71afa3c76abf928c11680c052313ffa

Related torrents for "Rango (2011) DVDSCR XviD-MAXSPEED"

Torrent search:

screener 2011