imdb
rating

5.4
The Hit List

The Hit List (2011)

Action, Thriller

Full description

The.Hit.List.Lista.Di.Morte.2011.iTALiAN.720p.BDRip.XviD-TrTd_CREW

Size 996.275 MB   0 seeders     Added 2011-05-28 18:37:56

Stream torrent
Starting‥ You need BitLord! Get it from 1BitLord.com
10
To download or stream you need BitLord. Visit them at BitLord.com
General
\nCount : 259
\nCount of stream of this kind : 1
\nKind of stream : General
\nKind of stream : General
\nStream identifier : 0
\nCount of video streams : 1
\nCount of audio streams : 1
\nVideo_Format_List : MPEG-4 Visual
\nVideo_Format_WithHint_List : MPEG-4 Visual (XviD)
\nCodecs Video : XviD
\nAudio_Format_List : MPEG Audio
\nAudio_Format_WithHint_List : MPEG Audio (MP3)
\nAudio codecs : MPEG-1 Audio layer 3
\nComplete name : The.Hit.List.Lista.Di.Morte.2011.iTALiAN.720p.BDRip.XviD-TrTd_CREW\\The.Hit.List.Lista.Di.Morte.2011.iTALiAN.720p.BDRip.XviD-TrTd_CREW.avi
\nFolder name : The.Hit.List.Lista.Di.Morte.2011.iTALiAN.720p.BDRip.XviD-TrTd_CREW
\nFile name : The.Hit.List.Lista.Di.Morte.2011.iTALiAN.720p.BDRip.XviD-TrTd_CREW
\nFile extension : avi
\nFormat : AVI
\nFormat : AVI
\nFormat/Info : Audio Video Interleave
\nFormat/Extensions usually used : avi
\nInterleaved : Yes
\nCodec : AVI
\nCodec : AVI
\nCodec/Info : Audio Video Interleave
\nCodec/Extensions usually used : avi
\nFile size : 996243456
\nFile size : 950 MiB
\nFile size : 950 MiB
\nFile size : 950 MiB
\nFile size : 950 MiB
\nFile size : 950.1 MiB
\nDuration : 5187840
\nDuration : 1h 26mn
\nDuration : 1h 26mn 27s 840ms
\nDuration : 1h 26mn
\nDuration : 01:26:27.840
\nOverall bit rate : 1536274
\nOverall bit rate : 1 536 Kbps
\nStream size : 6463248
\nStream size : 6.16 MiB (1%)
\nStream size : 6 MiB
\nStream size : 6.2 MiB
\nStream size : 6.16 MiB
\nStream size : 6.164 MiB
\nStream size : 6.16 MiB (1%)
\nProportion of this stream : 0.00649
\nTitle : The.Hit.List.2011.iTALiAN.720p.BDRip.XviD-TrTd_CREW
\nMovie name : The.Hit.List.2011.iTALiAN.720p.BDRip.XviD-TrTd_CREW
\nFile creation date : UTC 2011-05-28 10:04:00.306
\nFile creation date (local) : 2011-05-28 12:04:00.306
\nFile last modification date : UTC 2011-05-28 08:18:34.000
\nFile last modification date (loc : 2011-05-28 10:18:34.000
\nWriting application : VirtualDubMod 1.5.10.2 (build 2542/release)
\nWriting library : VirtualDubMod build 2542/release
\nWriting library : VirtualDubMod build 2542/release
\nComment : Video scOrp - Audio TRL
\n
\nVideo
\nCount : 148
\nCount of stream of this kind : 1
\nKind of stream : Video
\nKind of stream : Video
\nStream identifier : 0
\nID : 0
\nID : 0
\nFormat : MPEG-4 Visual
\nFormat profile : AdvancedSimple@L5
\nFormat settings : BVOP
\nFormat settings, BVOP : Yes
\nFormat settings, BVOP : Yes
\nFormat settings, QPel : No
\nFormat settings, QPel : No
\nFormat settings, GMC : 0
\nFormat settings, GMC : No warppoints
\nFormat settings, Matrix : Default (H.263)
\nFormat settings, Matrix : Default (H.263)
\nMuxing mode : Packed bitstream
\nCodec ID : XVID
\nCodec ID/Hint : XviD
\nCodec ID/Url : http://mediaarea.net/XVID
\nCodec : XVID
\nCodec : XviD
\nCodec/Family : MPEG-4V
\nCodec/Info : XviD project
\nCodec/Url : http://www.xvid.org/Downloads.15.0.html
\nCodec/CC : XVID
\nCodec profile : AdvancedSimple@L5
\nCodec settings : BVOP / Packed Bitstream
\nCodec settings, Packet bitstream : Yes
\nCodec settings, BVOP : Yes
\nCodec settings, QPel : No
\nCodec settings, GMC : 0
\nCodec settings, GMC : No warppoints
\nCodec settings, Matrix : Default (H.263)
\nDuration : 5187840
\nDuration : 1h 26mn
\nDuration : 1h 26mn 27s 840ms
\nDuration : 1h 26mn
\nDuration : 01:26:27.840
\nBit rate : 1334310
\nBit rate : 1 334 Kbps
\nWidth : 1280
\nWidth : 1 280 pixels
\nHeight : 720
\nHeight : 720 pixels
\nPixel aspect ratio : 1.000
\nDisplay aspect ratio : 1.778
\nDisplay aspect ratio : 16:9
\nFrame rate : 25.000
\nFrame rate : 25.000 fps
\nFrame count : 129696
\nResolution : 24
\nResolution : 24 bits
\nColorimetry : 4:2:0
\nScan type : Progressive
\nScan type : Progressive
\nInterlacement : PPF
\nInterlacement : Progressive
\nBits/(Pixel*Frame) : 0.058
\nDelay : 0
\nStream size : 865273123
\nStream size : 825 MiB (87%)
\nStream size : 825 MiB
\nStream size : 825 MiB
\nStream size : 825 MiB
\nStream size : 825.2 MiB
\nStream size : 825 MiB (87%)
\nProportion of this stream : 0.86854
\nWriting library : XviD0050
\nWriting library : XviD 1.2.1 (UTC 2008-12-04)
\nWriting library/Name : XviD
\nWriting library/Version : 1.2.1
\nWriting library/Date : UTC 2008-12-04
\n
\nAudio
\nCount : 129
\nCount of stream of this kind : 1
\nKind of stream : Audio
\nKind of stream : Audio
\nStream identifier : 0
\nID : 1
\nID : 1
\nFormat : MPEG Audio
\nFormat version : Version 1
\nFormat profile : Layer 3
\nFormat settings : Joint stereo / MS Stereo
\nFormat_Settings_Mode : Joint stereo / MS Stereo
\nCodec ID : 55
\nCodec ID/Hint : MP3
\nCodec ID/Url : http://www.iis.fraunhofer.de/amm/index.html
\nCodec : MPA1L3
\nCodec : MPEG-1 Audio layer 3
\nCodec/Family : MPEG-1
\nCodec/Info : MPEG-1 or 2 layer 3
\nCodec/Url : http://www.iis.fraunhofer.de/amm/index.html
\nCodec/CC : 55
\nCodec profile : Joint stereo
\nDuration : 5187795
\nDuration : 1h 26mn
\nDuration : 1h 26mn 27s 795ms
\nDuration : 1h 26mn
\nDuration : 01:26:27.795
\nBit rate mode : CBR
\nBit rate mode : Constant
\nBit rate : 192000
\nBit rate : 192 Kbps
\nChannel(s) : 2
\nChannel(s) : 2 channels
\nSampling rate : 44100
\nSampling rate : 44.1 KHz
\nSamplingCount : 228781760
\nResolution : 16
\nResolution : 16 bits
\nDelay : 0
\nVideo delay : 0
\nVideo0 delay : 0
\nStream size : 124507085
\nStream size : 119 MiB (12%)
\nStream size : 119 MiB
\nStream size : 119 MiB
\nStream size : 119 MiB
\nStream size : 118.7 MiB
\nStream size : 119 MiB (12%)
\nProportion of this stream : 0.12498
\nAlignment : Split
\nAlignment : Split accross interleaves
\nInterleave, duration : 0.95
\nInterleave, duration : 38
\nInterleave, duration : 38 ms (0.95 video frame)
\nInterleave, preload duration : 500
\nInterleave, preload duration : 500 ms
\nWriting library : LAME3.98.2
\nWriting library : LAME3.98.2
The.Hit.List.Lista.Di.Morte.2011.iTALiAN.720p.BDRip.XviD-TrTd_CREW/presentazione.rtf 31.373 KB
The.Hit.List.Lista.Di.Morte.2011.iTALiAN.720p.BDRip.XviD-TrTd_CREW/presentazione.txt 266 B
The.Hit.List.Lista.Di.Morte.2011.iTALiAN.720p.BDRip.XviD-TrTd_CREW/The.Hit.List.Lista.Di.Morte.2011.iTALiAN.720p.BDRip.XviD-TrTd_CREW.avi 996.243 MB
Gathering some info...

Register and log in Isohunt and see no captcha anymore!

4000 symbols left
Hash 82b3032e9583ad80bba9c4f719da9ed1bd5fb3f0

Related torrents for "The.Hit.List.Lista.Di.Morte.2011.iTALiAN.720p.BDRip.XviD-TrTd_CREW"

Torrent search:

italian hd bd 2011