Sangue.2011.iTALiAN.MD.720p.BDRip.XviD-TrTd_CREW

Size 1.063 GB   0 seeders     Added 2011-05-29 06:58:11

Stream torrent
Starting‥ You need BitLord! Get it from BitLord.com
3.3
To download or stream you need BitLord. Visit them at BitLord.com
General
\nCount : 259
\nCount of stream of this kind : 1
\nKind of stream : General
\nKind of stream : General
\nStream identifier : 0
\nCount of video streams : 1
\nCount of audio streams : 1
\nVideo_Format_List : MPEG-4 Visual
\nVideo_Format_WithHint_List : MPEG-4 Visual (XviD)
\nCodecs Video : XviD
\nAudio_Format_List : MPEG Audio
\nAudio_Format_WithHint_List : MPEG Audio (MP3)
\nAudio codecs : MPEG-1 Audio layer 3
\nComplete name : \\Capuccetto.Rosso.Sangue.2011.iTALiA.MD.720p.BDRip.XviD-TrTd_CREW\\Capuccetto.Rosso.Sangue.2011.iTALiA.MD.720p.BDRip.XviD-TrTd_CREW.avi
\nFolder name : Capuccetto.Rosso.Sangue.2011.iTALiA.MD.720p.BDRip.XviD-TrTd_CREW
\nFile name : Capuccetto.Rosso.Sangue.2011.iTALiA.MD.720p.BDRip.XviD-TrTd_CREW
\nFile extension : avi
\nFormat : AVI
\nFormat : AVI
\nFormat/Info : Audio Video Interleave
\nFormat/Extensions usually used : avi
\nInterleaved : Yes
\nCodec : AVI
\nCodec : AVI
\nCodec/Info : Audio Video Interleave
\nCodec/Extensions usually used : avi
\nFile size : 1062830080
\nFile size : 1 014 MiB
\nFile size : 1 014 MiB
\nFile size : 1 014 MiB
\nFile size : 1 014 MiB
\nFile size : 1 013.6 MiB
\nDuration : 5777280
\nDuration : 1h 36mn
\nDuration : 1h 36mn 17s 280ms
\nDuration : 1h 36mn
\nDuration : 01:36:17.280
\nOverall bit rate : 1471737
\nOverall bit rate : 1 472 Kbps
\nStream size : 6970606
\nStream size : 6.65 MiB (1%)
\nStream size : 7 MiB
\nStream size : 6.6 MiB
\nStream size : 6.65 MiB
\nStream size : 6.648 MiB
\nStream size : 6.65 MiB (1%)
\nProportion of this stream : 0.00656
\nTitle : Cappuccetto.Rosso.Sangue.2011.iTALiAN.MD.720p.BDRip.XviD-TrTd_CREW
\nMovie name : Cappuccetto.Rosso.Sangue.2011.iTALiAN.MD.720p.BDRip.XviD-TrTd_CREW
\nFile creation date : UTC 2011-05-28 22:34:57.490
\nFile creation date (local) : 2011-05-29 00:34:57.490
\nFile last modification date : UTC 2011-05-28 19:15:24.000
\nFile last modification date (loc : 2011-05-28 21:15:24.000
\nWriting application : VirtualDubMod 1.5.10.2 (build 2542/release)
\nWriting library : VirtualDubMod build 2542/release
\nWriting library : VirtualDubMod build 2542/release
\nComment : Video [scOrp] Audio [TNZ]
\n
\nVideo
\nCount : 148
\nCount of stream of this kind : 1
\nKind of stream : Video
\nKind of stream : Video
\nStream identifier : 0
\nID : 0
\nID : 0
\nFormat : MPEG-4 Visual
\nFormat profile : AdvancedSimple@L5
\nFormat settings : BVOP
\nFormat settings, BVOP : Yes
\nFormat settings, BVOP : Yes
\nFormat settings, QPel : No
\nFormat settings, QPel : No
\nFormat settings, GMC : 0
\nFormat settings, GMC : No warppoints
\nFormat settings, Matrix : Default (H.263)
\nFormat settings, Matrix : Default (H.263)
\nMuxing mode : Packed bitstream
\nCodec ID : XVID
\nCodec ID/Hint : XviD
\nCodec ID/Url : http://mediaarea.net/XVID
\nCodec : XVID
\nCodec : XviD
\nCodec/Family : MPEG-4V
\nCodec/Info : XviD project
\nCodec/Url : http://www.xvid.org/Downloads.15.0.html
\nCodec/CC : XVID
\nCodec profile : AdvancedSimple@L5
\nCodec settings : BVOP / Packed Bitstream
\nCodec settings, Packet bitstream : Yes
\nCodec settings, BVOP : Yes
\nCodec settings, QPel : No
\nCodec settings, GMC : 0
\nCodec settings, GMC : No warppoints
\nCodec settings, Matrix : Default (H.263)
\nDuration : 5777280
\nDuration : 1h 36mn
\nDuration : 1h 36mn 17s 280ms
\nDuration : 1h 36mn
\nDuration : 01:36:17.280
\nBit rate : 1239371
\nBit rate : 1 239 Kbps
\nWidth : 1280
\nWidth : 1 280 pixels
\nHeight : 528
\nHeight : 528 pixels
\nPixel aspect ratio : 1.000
\nDisplay aspect ratio : 2.424
\nDisplay aspect ratio : 2.40:1
\nFrame rate : 25.000
\nFrame rate : 25.000 fps
\nFrame count : 144432
\nResolution : 24
\nResolution : 24 bits
\nColorimetry : 4:2:0
\nScan type : Progressive
\nScan type : Progressive
\nInterlacement : PPF
\nInterlacement : Progressive
\nBits/(Pixel*Frame) : 0.073
\nDelay : 0
\nStream size : 895023972
\nStream size : 854 MiB (84%)
\nStream size : 854 MiB
\nStream size : 854 MiB
\nStream size : 854 MiB
\nStream size : 853.6 MiB
\nStream size : 854 MiB (84%)
\nProportion of this stream : 0.84211
\nTitle : Cappuccetto.Rosso Sangue.2011.iTALiAN.MD.720p.BDRip.XviD-TrTd_CREW
\nWriting library : XviD0050
\nWriting library : XviD 1.2.1 (UTC 2008-12-04)
\nWriting library/Name : XviD
\nWriting library/Version : 1.2.1
\nWriting library/Date : UTC 2008-12-04
\n
\nAudio
\nCount : 129
\nCount of stream of this kind : 1
\nKind of stream : Audio
\nKind of stream : Audio
\nStream identifier : 0
\nID : 1
\nID : 1
\nFormat : MPEG Audio
\nFormat version : Version 1
\nFormat profile : Layer 3
\nFormat settings : Joint stereo / MS Stereo
\nFormat_Settings_Mode : Joint stereo / MS Stereo
\nCodec ID : 55
\nCodec ID/Hint : MP3
\nCodec ID/Url : http://www.iis.fraunhofer.de/amm/index.html
\nCodec : MPA1L3
\nCodec : MPEG-1 Audio layer 3
\nCodec/Family : MPEG-1
\nCodec/Info : MPEG-1 or 2 layer 3
\nCodec/Url : http://www.iis.fraunhofer.de/amm/index.html
\nCodec/CC : 55
\nCodec profile : Joint stereo
\nDuration : 5744125
\nDuration : 1h 35mn
\nDuration : 1h 35mn 44s 125ms
\nDuration : 1h 35mn
\nDuration : 01:35:44.125
\nBit rate mode : CBR
\nBit rate mode : Constant
\nBit rate : 224000
\nBit rate : 224 Kbps
\nChannel(s) : 2
\nChannel(s) : 2 channels
\nSampling rate : 48000
\nSampling rate : 48.0 KHz
\nSamplingCount : 275718000
\nResolution : 16
\nResolution : 16 bits
\nDelay : 0
\nVideo delay : 0
\nVideo0 delay : 0
\nStream size : 160835502
\nStream size : 153 MiB (15%)
\nStream size : 153 MiB
\nStream size : 153 MiB
\nStream size : 153 MiB
\nStream size : 153.4 MiB
\nStream size : 153 MiB (15%)
\nProportion of this stream : 0.15133
\nAlignment : Split
\nAlignment : Split accross interleaves
\nInterleave, duration : 1.01
\nInterleave, duration : 40
\nInterleave, duration : 40 ms (1.01 video frame)
\nInterleave, preload duration : 500
\nInterleave, preload duration : 500 ms
\nWriting library : LAME3.98.2
\nWriting library : LAME3.98.2
Capuccetto.Rosso.Sangue.2011.iTALiA.MD.720p.BDRip.XviD-TrTd_CREW/Capuccetto.Rosso.Sangue.2011.iTALiA.MD.720p.BDRip.XviD-TrTd_CREW.avi 1.063 GB
Capuccetto.Rosso.Sangue.2011.iTALiA.MD.720p.BDRip.XviD-TrTd_CREW/presentazione.rtf 31.373 KB
Capuccetto.Rosso.Sangue.2011.iTALiA.MD.720p.BDRip.XviD-TrTd_CREW/presentazione.txt 266 B
Gathering some info...

Register and log in Isohunt and see no captcha anymore!

4000 symbols left
Hash 366d4c003018faa08e372a9a30f30d4c0d457397