imdb
rating

5.6
Green Lantern

Green Lantern (2011)

Action, Adventure, Science Fiction, Thriller

Full description

Green Lantern (2011) PAL TS2DVD DD2.0 NLSubs-DMT

Size 909.969 MB   0 seeders     Added 2011-06-04 23:44:32

Stream torrent
Starting‥ You need BitLord! Get it from BitLord.com
To download or stream you need BitLord. Visit them at BitLord.com
Title:
[img]image[/img]


::Video Source:: CiNEDUB
::Audio Source:: Own
::Language:::::: English
::IMDB:::::::::: http://www.imdb.com/title/tt1133985/
::Cast:::::::::::Ryan Reynolds, Blake Lively ,Peter Sarsgaard

Plot:
A test pilot is granted a mystical green ring that bestows him with otherworldly powers, as well as membership into an intergalactic squadron tasked with keeping peace within the universe.


Format                           : AVI
Format/Info                      : Audio Video Interleave
Duration                         : 1h 35mn
Overall bit rate                 : 2 060 Kbps
Writing application              : VirtualDubMod 1.5.10.2 (build 2540/release)
Writing library                  : VirtualDubMod build 2540/release

Video
ID                               : 0
Format                           : MPEG-4 Visual
Format profile                   : Advanced Simple@L5
Format settings, BVOP            : Yes
Format settings, QPel            : No
Format settings, GMC             : No warppoints
Format settings, Matrix          : Default (MPEG)
Muxing mode                      : Packed bitstream
Codec ID                         : XVID
Codec ID/Hint                    : XviD
Duration                         : 1h 35mn
Bit rate                         : 1 922 Kbps
Width                            : 688 pixels
Height                           : 336 pixels
Display aspect ratio             : 2.048
Frame rate                       : 25.000 fps
Color space                      : YUV
Chroma subsampling               : 4:2:0
Bit depth                        : 8 bits
Scan type                        : Progressive
Bits/(Pixel*Frame)               : 0.333
Stream size                      : 1.28 GiB (93%)
Writing library                  : XviD 58

Audio
ID                               : 1
Format                           : MPEG Audio
Format version                   : Version 1
Format profile                   : Layer 3
Codec ID                         : 55
Codec ID/Hint                    : MP3
Duration                         : 1h 35mn
Bit rate mode                    : Constant
Bit rate                         : 128 Kbps
Channel(s)                       : 2 channels
Sampling rate                    : 44.1 KHz
Stream size                      : 87.2 MiB (6%)
Alignment                        : Split accross interleaves
Interleave, duration             : 40 ms (1.00 video frame)
Interleave, preload duration     : 500 ms


Screen Shots:

[img]image[/img]

[img]image[/img]

[img]image[/img]

[img]image[/img]

[img]image[/img]

[img]image[/img]

[img]image[/img]

[img]image[/img]

[img]image[/img]
Green Lantern (2011) PAL TS2DVD DD2.0 NLSubs-DMT/2011-Green-Lantern-3D-Wallpapers-HD-Desktop-Wallpapers-2560-1600.jpg 1.331 MB
Green Lantern (2011) PAL TS2DVD DD2.0 NLSubs-DMT/Green Lantern (2011) PAL TS2DVD DD2.0 NLSubs-DMT.avi 859.682 MB
Green Lantern (2011) PAL TS2DVD DD2.0 NLSubs-DMT/Green Lantern- Movie Teaser - WonderCon 2011 [www.keepvid.com].mp4 48.951 MB
Gathering some info...

Register and log in Isohunt and see no captcha anymore!

4000 symbols left
Hash 41766104c3d15389102f2693a5a8d772564c32ea

Related torrents for "Green Lantern (2011) PAL TS2DVD DD2.0 NLSubs-DMT"

Torrent search:

2011