imdb
rating

5.6
Green Lantern

Green Lantern (2011)

Action, Adventure, Science Fiction, Thriller

Full description

Green Lantern 2011 iTALiAN V2 NEW VIDEO READNFO MD TS XviD TNZ IDN CREW

Size 924.649 MB   0 seeders     Added 2011-06-05 02:36:33

Stream torrent
Starting‥ You need BitLord! Get it from 1BitLord.com
To download or stream you need BitLord. Visit them at BitLord.com
itle:
[img]image[/img]


::Video Source:: CiNEDUB
::Audio Source:: Own
::Language:::::: English
::IMDB:::::::::: http://www.imdb.com/title/tt1133985/
::Cast:::::::::::Ryan Reynolds, Blake Lively ,Peter Sarsgaard

Plot:
A test pilot is granted a mystical green ring that bestows him with otherworldly powers, as well as membership into an intergalactic squadron tasked with keeping peace within the universe.


Format                           : AVI
Format/Info                      : Audio Video Interleave
Duration                         : 1h 35mn
Overall bit rate                 : 2 060 Kbps
Writing application              : VirtualDubMod 1.5.10.2 (build 2540/release)
Writing library                  : VirtualDubMod build 2540/release

Video
ID                               : 0
Format                           : MPEG-4 Visual
Format profile                   : Advanced Simple@L5
Format settings, BVOP            : Yes
Format settings, QPel            : No
Format settings, GMC             : No warppoints
Format settings, Matrix          : Default (MPEG)
Muxing mode                      : Packed bitstream
Codec ID                         : XVID
Codec ID/Hint                    : XviD
Duration                         : 1h 35mn
Bit rate                         : 1 922 Kbps
Width                            : 688 pixels
Height                           : 336 pixels
Display aspect ratio             : 2.048
Frame rate                       : 25.000 fps
Color space                      : YUV
Chroma subsampling               : 4:2:0
Bit depth                        : 8 bits
Scan type                        : Progressive
Bits/(Pixel*Frame)               : 0.333
Stream size                      : 1.28 GiB (93%)
Writing library                  : XviD 58

Audio
ID                               : 1
Format                           : MPEG Audio
Format version                   : Version 1
Format profile                   : Layer 3
Codec ID                         : 55
Codec ID/Hint                    : MP3
Duration                         : 1h 35mn
Bit rate mode                    : Constant
Bit rate                         : 128 Kbps
Channel(s)                       : 2 channels
Sampling rate                    : 44.1 KHz
Stream size                      : 87.2 MiB (6%)
Alignment                        : Split accross interleaves
Interleave, duration             : 40 ms (1.00 video frame)
Interleave, preload duration     : 500 ms


Screen Shots:

[img]image[/img]

[img]image[/img]

[img]image[/img]

[img]image[/img]

[img]image[/img]

[img]image[/img]

[img]image[/img]

[img]image[/img]

[img]image[/img]
Green Lantern 2011 iTALiAN V2 NEW VIDEO READNFO MD TS XviD TNZ IDN CREW/2011-Green-Lantern-3D-Wallpapers-HD-Desktop-Wallpapers-2560-1600.jpg 1.331 MB
Green Lantern 2011 iTALiAN V2 NEW VIDEO READNFO MD TS XviD TNZ IDN CREW/Green Lantern 2011 iTALiAN V2 NEW VIDEO READNFO MD TS XviD TNZ IDN CREW.avi 874.362 MB
Green Lantern 2011 iTALiAN V2 NEW VIDEO READNFO MD TS XviD TNZ IDN CREW/Green Lantern- Movie Teaser - WonderCon 2011 [www.keepvid.com].mp4 48.951 MB
Gathering some info...

Register and log in Isohunt and see no captcha anymore!

4000 symbols left
Hash 558e4196fb472c95fc7b8578774b67e7e44959d2

Related torrents for "Green Lantern 2011 iTALiAN V2 NEW VIDEO READNFO MD TS XviD TNZ IDN CREW"

Torrent search:

italian telesync 2011