imdb
rating

8.8
The Simpsons

The Simpsons (1989)

Animation, Comedy, Family

Full description

The SThe Simpsons S22e01-22 [XviD - Eng Mp3 - HardSub Ita] HDTVrip - Stagione completa [TNT Village]

Size 3.772 GB   0 seeders     Added 2011-06-10 03:42:51

Stream torrent
Starting‥ You need BitLord! Get it from BitLord.com
To download or stream you need BitLord. Visit them at BitLord.com
The Simpsons S22e01-22 [XviD - Eng Mp3 - HardSub Ita] HDTVrip - Stagione completa [TNT Village]

[url=http://forum.tntvillage.scambioetico.org/tntforum/?showtopic=254474].: Scheda Originale :.[/url]

.: Trama :.

È una parodia satirica della società e dello stile di vita statunitensi, personificati dalla famiglia protagonista, di cui fanno parte Homer, Marge e i loro tre figli Bart, Lisa e Maggie.
Ambientato in una cittadina statunitense chiamata Springfield, lo show tratta in chiave umoristica molti aspetti della condizione umana, così come la cultura, la società in generale e la stessa televisione. 

.: Locandina :.

[img]image[/img]

.: Scheda :.

[B]Titolo:[/B] The Simpsons
[B]Genere:[/B] Sitcom
[B]Episodi:[/B] 22
[B]Durata episodio:[/B] 21 Minuti
[B]Ideatore:[/B] Nick Wauters

.: Screenshot :.

[URL=http://imageshack.us/photo/my-images/560/01elementaryschoolmusic.jpg/][IMG]image[/IMG][/URL] [URL=http://imageshack.us/photo/my-images/64/01elementaryschoolmusic.jpg/][IMG]image[/IMG][/URL]

========================================

.: Dati tecnici del file :.

General
Complete name : The Simpsons 22x01 - Elementary School Musical (Sub ITA).avi
Format : AVI
Format/Info : Audio Video Interleave
File size : 174 MiB
Duration : 21mn 55s
Overall bit rate : 1 109 Kbps
Writing application : VirtualDubMod 1.5.10.2 (build 2542/release)
Writing library : VirtualDubMod build 2542/release

Video
ID : 0
Format : MPEG-4 Visual
Format profile : Advanced Simple@L5
Format settings, BVOP : 1
Format settings, QPel : No
Format settings, GMC : No warppoints
Format settings, Matrix : Default (H.263)
Muxing mode : Packed bitstream
Codec ID : XVID
Codec ID/Hint : XviD
Duration : 21mn 55s
Bit rate : 983 Kbps
Width : 624 pixels
Height : 352 pixels
Display aspect ratio : 16:9
Frame rate : 23.976 fps
Color space : YUV
Chroma subsampling : 4:2:0
Bit depth : 8 bits
Scan type : Progressive
Compression mode : Lossy
Bits/(Pixel*Frame) : 0.187
Stream size : 154 MiB (89%)
Writing library : XviD 1.2.1 (UTC 2008-12-04)

Audio
ID : 1
Format : MPEG Audio
Format version : Version 1
Format profile : Layer 3
Mode : Joint stereo
Mode extension : MS Stereo
Codec ID : 55
Codec ID/Hint : MP3
Duration : 21mn 55s
Bit rate mode : Variable
Bit rate : 112 Kbps
Channel(s) : 2 channels
Sampling rate : 48.0 KHz
Compression mode : Lossy
Stream size : 17.9 MiB (10%)
Alignment : Aligned on interleaves
Interleave, duration : 24 ms (0.58 video frame)
Interleave, preload duration : 538 ms
Writing library : LAME3.95
Encoding settings : -m j -V 4 -q 3 -lowpass 16 --abr 112
The Simpsons S22/The Simpsons 22x04 - Treehouse of Horror XXI (Sub ITA).avi 183.626 MB
The Simpsons S22/The Simpsons 22x07 - How Munched Is That Birdie In The Window (Sub ITA).avi 183.591 MB
The Simpsons S22/The Simpsons 22x16 - A Midsummer's Nice Dream (Sub ITA).avi 183.585 MB
Gathering some info...

Register and log in Isohunt and see no captcha anymore!

4000 symbols left
Hash 3a229932b91e79cd0c234697c8dcb0cbe0b77a9c

Related torrents for "The SThe Simpsons S22e01-22 [XviD - Eng Mp3 - HardSub Ita] HDTVrip - Stagione completa [TNT Village]"