imdb
rating

8.0
WWE Raw

WWE Raw (1993)

Action, Drama

Full description

wwe raw 20 6 11

Size 915.818 MB   0 seeders     Added 2011-06-21 21:28:15

Stream torrent
Starting‥ You need BitLord! Get it from 1BitLord.com
To download or stream you need BitLord. Visit them at BitLord.com
its WWE.Monday.Night.Raw.2011.06.20.Power.To.The.People of 20th june 2011 in flv format! its in 9 parts . size is low but quality is good! use vlc player to enhance volume!! rest share ur views in comments!!

this is file info of only one part. rest also have similar info. 
Video
Format                              : AVC
Format/Info                       : Advanced Video Codec
Format profile                    : Main@L3.0
Format settings, CABAC      : Yes
Format settings, ReFrames : 3 frames
Muxing mode                     : Container profile=Unknown@3.0
Duration                            : 15mn 5s
Bit rate                              : 720 Kbps
Width                                : 634 pixels
Height                               : 360 pixels
Display aspect ratio            : 16:9
Frame rate mode              : Variable
Frame rate                       : 29.970 fps
Color space                      : YUV
Chroma subsampling         : 4:2:0
Bit depth                          : 8 bits
Scan type                         : Progressive
Bits/(Pixel*Frame)            : 0.105
Stream size                      : 77.8 MiB (84%)

Audio
Format                            : AAC
Format/Info                     : Advanced Audio Codec
Format version                 : Version 4
Format profile                  : LC
Format settings, SBR        : No
Duration                          : 15mn 5s
Bit rate                            : 129 Kbps
Channel(s)                       : 2 channels
Channel positions             : Front: L R
Sampling rate                  : 44.1 KHz
Bit depth                          : 16 bits
Stream size                     : 13.9 MiB (15%)
wwe raw 20 6 11/WWE RAW - 6_20_11 Part 1_9 (HQ).flv 99.906 MB
wwe raw 20 6 11/WWE RAW - 6_20_11 Part 2_9 (HQ).flv 102.989 MB
wwe raw 20 6 11/WWE RAW - 6_20_11 Part 3_9 (HQ).flv 94.126 MB
Gathering some info...

Register and log in Isohunt and see no captcha anymore!

4000 symbols left
Hash 25de626491772c3b649dcbeada2d10d9d3c574c0

Related torrents for "wwe raw 20 6 11"